<svg xmlns="http://www.w3.org/2000/svg">
<defs>
<font
   id="FontID1"
   horiz-adv-x="578"
   font-variant="normal"
   font-style="normal"
   font-weight="400"
   horiz-origin-x="0"
   horiz-origin-y="0"
   vert-origin-x="45"
   vert-origin-y="90"
   vert-adv-y="90"
   style="font-style:normal;font-variant:normal;font-weight:400">
	<font-face
   font-family="Calibri"
   id="font-face2">
		<font-face-src>
			<font-face-name
   name="Calibri" />
		</font-face-src>
	</font-face>
   <missing-glyph
   id="missing-glyph6"><path
     d="M0 0z"
     id="path4" /></missing-glyph>
   <glyph
   unicode="р"
   horiz-adv-x="525"
   d="M479.001 239.165c0,-38.4976 -4.17157,-73.0025 -12.4998,-103.664 -8.16436,-30.4972 -20.3364,-56.495 -36.5012,-77.8296 -16.001,-21.3346 -35.9947,-37.8421 -59.6684,-49.3437 -23.6588,-11.5016 -50.8336,-17.3269 -81.3307,-17.3269 -13.0064,0 -24.9996,1.32596 -35.9947,3.82891 -11.1739,2.66683 -21.8412,6.67451 -32.5085,12.3359 -10.5034,5.49753 -20.9919,12.4998 -31.3315,21.0068 -10.5034,8.32824 -21.4985,18.3251 -33.164,29.6628l0 -220.17c0,-2.66683 -0.670431,-4.8271 -1.99639,-6.8384 -1.34086,-1.99639 -3.33726,-3.66502 -6.33185,-4.99099 -3.00949,-1.17698 -7.00228,-2.17518 -12.3359,-2.83071 -5.16977,-0.670431 -11.8443,-1.0131 -20.0086,-1.0131 -8.00048,0 -14.4962,0.342665 -19.666,1.0131 -5.33365,0.655533 -9.49032,1.65373 -12.4998,2.83071 -3.15847,1.32596 -5.33365,2.99459 -6.49573,4.99099 -1.16208,2.01129 -1.66863,4.17157 -1.66863,6.8384l0 614.174c0,2.99459 0.506548,5.31875 1.50475,7.16616 0.998197,1.65373 2.99459,3.32236 5.8253,4.49934 3.00949,1.32596 6.67451,2.32416 11.3377,2.83071 4.49934,0.491649 10.1608,0.670431 16.6714,0.670431 6.8235,0 12.4998,-0.178782 16.9992,-0.670431 4.33545,-0.506548 8.00048,-1.50475 10.9951,-2.66683 2.99459,-1.34086 5.00588,-3.00949 6.16797,-4.66322 1.16208,-1.84741 1.66863,-4.17157 1.66863,-7.16616l0 -58.834c13.3341,13.6619 26.1617,25.4913 38.4976,35.6669 12.3359,9.99687 24.8357,18.3251 37.3356,24.9996 12.4998,6.65961 25.3274,11.8294 38.4976,15.1666 13.1702,3.48624 26.996,5.15487 41.671,5.15487 31.8231,0 58.834,-6.16797 81.3307,-18.489 22.3328,-12.4998 40.6579,-29.3351 54.8264,-50.8336 14.1684,-21.4985 24.508,-46.4981 31.0037,-74.9989 6.49573,-28.5008 9.66911,-58.6702 9.66911,-90.5082zm-83.9976 -9.32644c0,22.4967 -1.66863,44.3229 -5.16977,65.3298 -3.33726,20.9919 -9.32644,39.6597 -17.5057,56.0033 -8.32824,16.3287 -19.4872,29.3351 -33.4918,39.1681 -14.0046,9.83299 -31.4954,14.6601 -52.3383,14.6601 -10.5034,0 -20.6642,-1.50475 -30.8249,-4.66322 -10.0118,-3.17337 -20.3364,-8.00048 -30.8398,-14.675 -10.3395,-6.65961 -21.3346,-15.4944 -32.6723,-26.4895 -11.3228,-11.01 -23.4949,-24.508 -36.1586,-40.5089l0 -174.834c22.1689,-27.1599 43.1609,-47.8241 62.9907,-62.3352 20.0086,-14.3323 40.8367,-21.4985 62.6779,-21.4985 20.1576,0 37.4994,4.842 51.9956,14.675 14.4962,9.83299 26.1617,22.8245 35.1604,39.1681 9.01357,16.3287 15.5093,34.49 19.8448,54.8264 4.15667,20.1725 6.33185,40.6728 6.33185,61.1731z"
   id="glyph8" />
   <glyph
   unicode="н"
   horiz-adv-x="534"
   d="M460.005 12.172c0,-2.66683 -0.670431,-4.842 -2.01129,-6.67451 -1.32596,-1.66863 -3.32236,-3.33726 -6.33185,-4.66322 -2.99459,-1.16208 -7.00228,-2.16028 -12.3359,-2.83071 -5.15487,-0.670431 -11.6655,-0.998197 -19.4872,-0.998197 -8.34314,0 -15.0028,0.327766 -20.1725,0.998197 -5.33365,0.670431 -9.32644,1.66863 -12.3359,2.83071 -2.99459,1.32596 -4.99099,2.99459 -6.33185,4.66322 -1.32596,1.83251 -1.99639,4.00769 -1.99639,6.67451l0 192.831 -223 0 0 -192.831c0,-2.66683 -0.670431,-4.842 -1.99639,-6.67451 -1.34086,-1.66863 -3.33726,-3.33726 -6.33185,-4.66322 -3.00949,-1.16208 -7.00228,-2.16028 -12.3359,-2.83071 -5.16977,-0.670431 -11.8443,-0.998197 -20.0086,-0.998197 -8.00048,0 -14.4962,0.327766 -19.666,0.998197 -5.33365,0.670431 -9.49032,1.66863 -12.4998,2.83071 -3.15847,1.32596 -5.33365,2.99459 -6.49573,4.66322 -1.16208,1.83251 -1.66863,4.00769 -1.66863,6.67451l0 439.669c0,2.65193 0.506548,4.8271 1.66863,6.65961 1.16208,1.66863 3.33726,3.33726 6.49573,4.8271 3.00949,1.50475 7.16616,2.50294 12.4998,3.00949 5.16977,0.491649 11.6655,0.670431 19.666,0.670431 8.16436,0 14.8389,-0.178782 20.0086,-0.670431 5.33365,-0.506548 9.32644,-1.50475 12.3359,-3.00949 2.99459,-1.48985 4.99099,-3.15847 6.33185,-4.8271 1.32596,-1.83251 1.99639,-4.00769 1.99639,-6.65961l0 -178.841 223 0 0 178.841c0,2.65193 0.670431,4.8271 1.99639,6.65961 1.34086,1.66863 3.33726,3.33726 6.33185,4.8271 3.00949,1.50475 7.00228,2.50294 12.3359,3.00949 5.16977,0.491649 11.8294,0.670431 20.1725,0.670431 7.8217,0 14.3323,-0.178782 19.4872,-0.670431 5.33365,-0.506548 9.34134,-1.50475 12.3359,-3.00949 3.00949,-1.48985 5.00588,-3.15847 6.33185,-4.8271 1.34086,-1.83251 2.01129,-4.00769 2.01129,-6.65961l0 -439.669z"
   id="glyph10" />
   <glyph
   unicode="ы"
   horiz-adv-x="666"
   d="M592.005 12.172c0,-2.66683 -0.670431,-4.842 -2.01129,-6.67451 -1.32596,-1.66863 -3.32236,-3.33726 -6.33185,-4.66322 -2.99459,-1.16208 -7.00228,-2.16028 -12.3359,-2.83071 -5.15487,-0.670431 -11.8294,-0.998197 -19.9937,-0.998197 -8.00048,0 -14.4962,0.327766 -19.666,0.998197 -5.33365,0.670431 -9.50522,1.66863 -12.4998,2.83071 -3.17337,1.32596 -5.33365,2.99459 -6.49573,4.66322 -1.17698,1.83251 -1.66863,4.00769 -1.66863,6.67451l0 439.669c0,2.65193 0.491649,4.8271 1.66863,6.65961 1.16208,1.66863 3.32236,3.33726 6.49573,4.8271 2.99459,1.50475 7.16616,2.50294 12.4998,3.00949 5.16977,0.491649 11.6655,0.670431 19.666,0.670431 8.16436,0 14.8389,-0.178782 19.9937,-0.670431 5.33365,-0.506548 9.34134,-1.50475 12.3359,-3.00949 3.00949,-1.48985 5.00588,-3.15847 6.33185,-4.8271 1.34086,-1.83251 2.01129,-4.00769 2.01129,-6.65961l0 -439.669zm-436.004 284.829c11.9933,0.998197 24.1653,1.83251 36.3374,2.33906 12.1571,0.491649 25.3274,0.655533 39.6597,0.655533 34.8326,0 64.4955,-3.50114 89.3312,-10.4885 24.6719,-7.00228 45.0083,-17.014 61.1731,-30.0055 16.001,-13.0064 27.8303,-28.5008 35.3243,-46.662 7.50883,-18.0122 11.1739,-38.3338 11.1739,-60.6666 0,-22.5116 -4.00769,-43.5035 -12.0082,-63.0056 -8.00048,-19.5021 -20.5003,-36.5012 -37.4994,-50.8336 -17.163,-14.3323 -38.9893,-25.6701 -65.6575,-33.8344 -26.8321,-8.32824 -58.834,-12.4998 -96.3335,-12.4998 -8.67091,0 -17.5057,0 -26.3405,0.163883 -8.65601,0.163883 -17.3269,0.506548 -25.8339,0.998197 -8.49213,0.506548 -16.8353,1.17698 -25.1635,1.83251 -8.32824,0.506548 -16.6714,1.34086 -25.1635,2.33906 -13.6619,1.66863 -23.6737,6.00408 -30.1694,13.1702 -6.49573,7.16616 -9.83299,18.1612 -9.83299,32.8362l0 408.501c0,2.65193 0.506548,4.8271 1.66863,6.65961 1.16208,1.66863 3.33726,3.33726 6.49573,4.8271 3.00949,1.50475 7.16616,2.50294 12.172,3.00949 5.16977,0.491649 11.3377,0.670431 18.9955,0.670431 15.6732,0 26.5044,-1.17698 32.6723,-3.67992 6.00408,-2.48804 8.99867,-6.33185 8.99867,-11.4867l0 -154.84zm189.002 -150.34c0,13.5129 -1.99639,25.6701 -6.16797,36.68 -4.00769,10.8312 -10.6673,20.1576 -19.8299,27.8303 -9.34134,7.65781 -21.5134,13.6619 -36.8439,17.6696 -15.3305,4.15667 -33.9983,6.15307 -55.9884,6.15307 -13.3341,0 -25.6701,-0.327766 -37.0078,-0.998197 -11.3377,-0.655533 -22.4967,-1.48985 -33.164,-2.48804l0 -169.679c11.3377,-1.16208 22.4967,-2.32416 33.6705,-3.32236 10.9951,-1.0131 24.4931,-1.50475 40.3302,-1.50475 39.6597,0 68.667,8.00048 87.1709,23.8375 18.489,15.8222 27.8303,37.8272 27.8303,65.8214z"
   id="glyph12" />
   <glyph
   unicode="к"
   horiz-adv-x="463"
   d="M432.994 8.67091c0,-1.83251 -0.491649,-3.66502 -1.65373,-5.00588 -1.17698,-1.50475 -3.33726,-2.83071 -6.34675,-3.66502 -3.15847,-0.998197 -7.16616,-1.83251 -12.321,-2.33906 -5.00588,-0.491649 -11.5016,-0.655533 -19.3382,-0.655533 -8.99867,0 -16.5075,0.327766 -22.1689,0.998197 -5.66142,0.670431 -10.3395,1.48985 -14.0046,2.66683 -3.50114,1.16208 -6.16797,2.66683 -7.65781,4.33545 -1.66863,1.83251 -2.83071,3.82891 -3.50114,6.16797l-46.662 113.824c-5.8402,14.675 -12.0082,27.1748 -18.6678,37.8421 -6.67451,10.4885 -14.3323,19.1594 -23.1671,25.6552 -8.67091,6.51063 -18.5039,11.1739 -29.6777,14.1684 -10.9951,2.83071 -23.4949,4.33545 -37.8272,4.33545l-33.9983 0 0 -197.837c0,-1.66863 -0.834314,-3.15847 -2.50294,-4.8271 -1.66863,-1.66863 -3.99279,-3.00949 -7.33005,-3.82891 -3.33726,-1.0131 -7.50883,-1.83251 -12.8425,-2.50294 -5.15487,-0.670431 -11.159,-0.998197 -17.9973,-0.998197 -7.00228,0 -12.9915,0.327766 -18.1612,0.998197 -5.33365,0.670431 -9.50522,1.48985 -12.8276,2.50294 -3.33726,0.819416 -5.67632,2.16028 -7.16616,3.82891 -1.50475,1.66863 -2.17518,3.33726 -2.17518,4.8271l0 446.671c0,1.50475 0.670431,3.17337 2.17518,4.49934 1.48985,1.50475 3.82891,2.83071 7.16616,3.66502 3.32236,0.998197 7.49393,1.83251 12.8276,2.33906 5.16977,0.491649 11.159,0.670431 18.1612,0.670431 6.8384,0 12.8425,-0.178782 17.9973,-0.670431 5.33365,-0.506548 9.50522,-1.34086 12.8425,-2.33906 3.33726,-0.834314 5.66142,-2.16028 7.33005,-3.66502 1.66863,-1.32596 2.50294,-2.99459 2.50294,-4.66322l0 -184.666 33.9983 0c12.172,0 23.4949,1.32596 33.6705,4.15667 10.1608,2.84561 19.5021,7.34494 27.8303,13.6768 8.49213,6.49573 16.001,14.6601 22.4967,24.8357 6.67451,10.1608 12.8425,22.3328 18.34,36.6651l40.6579 101.503c0.670431,2.65193 1.83251,4.8271 3.33726,6.8235 1.66863,1.99639 4.17157,3.66502 7.33005,4.842 3.33726,1.32596 7.67271,2.32416 13.0064,2.83071 5.33365,0.491649 12.4998,0.670431 21.3346,0.670431 7.65781,0 14.1684,-0.178782 19.1594,-0.670431 5.00588,-0.506548 8.99867,-1.34086 11.8294,-2.33906 2.66683,-0.834314 4.51424,-2.16028 5.51243,-3.66502 0.998197,-1.32596 1.48985,-2.99459 1.48985,-4.49934 0,-2.99459 -0.327766,-6.16797 -1.16208,-9.32644 -0.834314,-3.33726 -1.99639,-7.00228 -3.66502,-11.3377l-41.9988 -96.84c-6.49573,-16.3287 -13.498,-29.9906 -21.1707,-41.1645 -7.65781,-10.9951 -15.3305,-20.3364 -23.1671,-27.6665 -7.65781,-7.33005 -15.6583,-12.9915 -23.8375,-17.163 -8.00048,-4.00769 -15.8222,-7.16616 -23.331,-9.50522l0 -0.998197c11.3377,-3.82891 21.8412,-8.49213 31.5103,-14.0046 9.65421,-5.66142 18.489,-12.4998 26.8321,-20.5003 8.32824,-8.16436 16.001,-17.8335 23.1671,-29.1563 7.16616,-11.1739 13.8258,-24.0014 20.1576,-38.6764l48.3306 -111.321c1.34086,-2.17518 2.17518,-4.33545 2.84561,-6.34675 0.655533,-1.83251 1.16208,-3.82891 1.48985,-5.49753 0.342665,-1.83251 0.670431,-3.32236 0.834314,-4.49934 0.163883,-1.16208 0.163883,-2.16028 0.163883,-3.15847z"
   id="glyph14" />
   <glyph
   unicode="Ц"
   horiz-adv-x="638"
   d="M617.005 -153.335c0,-2.66683 -0.506548,-4.66322 -1.66863,-6.33185 -1.17698,-1.66863 -3.00949,-2.99459 -5.67632,-3.99279 -2.48804,-0.834314 -6.15307,-1.66863 -10.6673,-2.33906 -4.49934,-0.670431 -10.6524,-0.998197 -18.489,-0.998197 -6.51063,0 -12.0082,0.327766 -16.5075,0.998197 -4.49934,0.670431 -8.32824,1.50475 -11.159,2.33906 -3.00949,0.998197 -5.00588,2.32416 -6.16797,3.99279 -1.16208,1.66863 -1.66863,3.66502 -1.66863,6.33185l0 153.335 -431.162 0c-9.17746,0 -16.3436,2.83071 -21.8412,8.50702 -5.33365,5.66142 -8.00048,14.3323 -8.00048,25.6552l0 585.674c0,2.32416 0.670431,4.49934 1.99639,6.33185 1.34086,1.99639 3.50114,3.66502 6.8384,5.00588 3.17337,1.16208 7.67271,2.16028 13.1702,2.83071 5.49753,0.655533 12.1571,0.998197 19.9937,0.998197 8.16436,0 14.8389,-0.342665 20.3364,-0.998197 5.33365,-0.670431 9.66911,-1.66863 12.8276,-2.83071 3.33726,-1.34086 5.51243,-3.00949 6.8384,-5.00588 1.34086,-1.99639 1.99639,-4.00769 1.99639,-6.33185l0 -547.832 283.011 0 0 547.832c0,2.32416 0.655533,4.33545 1.99639,6.33185 1.32596,1.99639 3.66502,3.66502 7.00228,5.00588 3.50114,1.16208 7.8217,2.16028 13.1553,2.83071 5.51243,0.655533 12.172,0.998197 20.3364,0.998197 7.83659,0 14.3323,-0.342665 19.8299,-0.998197 5.33365,-0.670431 9.66911,-1.66863 12.8425,-2.83071 3.33726,-1.34086 5.49753,-3.00949 6.8235,-5.00588 1.34086,-1.99639 2.01129,-4.00769 2.01129,-6.33185l0 -547.832 63.9889 0c6.51063,0 11.1739,-1.83251 13.8407,-5.67632 2.83071,-3.66502 4.17157,-9.65421 4.17157,-18.1612l0 -201.502z"
   id="glyph16" />
   <glyph
   unicode="х"
   horiz-adv-x="433"
   d="M407.339 21.4985c2.66683,-4.66322 3.99279,-8.49213 3.99279,-11.5016 0,-3.15847 -1.66863,-5.66142 -4.66322,-7.65781 -3.17337,-1.83251 -7.83659,-3.33726 -14.1684,-4.17157 -6.33185,-0.834314 -14.6601,-1.16208 -24.6719,-1.16208 -9.83299,0 -17.4908,0.163883 -23.1671,0.655533 -5.8253,0.506548 -10.3246,1.34086 -13.6619,2.50294 -3.50114,1.16208 -6.16797,2.66683 -7.83659,4.33545 -1.83251,1.83251 -3.32236,3.82891 -4.66322,6.16797l-105.496 174.506 -105.004 -174.506c-1.32596,-2.33906 -2.83071,-4.33545 -4.66322,-6.16797 -1.66863,-1.66863 -4.33545,-3.17337 -7.83659,-4.33545 -3.33726,-1.16208 -7.83659,-1.99639 -13.3341,-2.50294 -5.49753,-0.491649 -12.8276,-0.655533 -22.005,-0.655533 -9.49032,0 -17.163,0.327766 -23.1671,1.16208 -5.98918,0.834314 -10.4885,2.33906 -13.1553,4.17157 -2.83071,1.99639 -4.17157,4.49934 -4.00769,7.65781 0.163883,3.00949 1.83251,6.8384 4.66322,11.5016l136.842 214.329 -129.497 206.672c-2.50294,4.66322 -4.00769,8.50702 -4.17157,11.5016 -0.163883,3.15847 1.34086,5.66142 4.49934,7.83659 2.99459,2.16028 7.67271,3.50114 14.1684,4.15667 6.33185,0.670431 14.6601,1.0131 24.9996,1.0131 9.50522,0 16.9992,-0.178782 22.8393,-0.670431 5.66142,-0.506548 10.1608,-1.34086 13.3341,-2.33906 3.32236,-0.834314 5.66142,-2.16028 7.33005,-3.82891 1.66863,-1.66863 3.15847,-3.66502 4.49934,-5.8402l99.9985 -163.66 101.667 163.66c1.16208,2.01129 2.66683,3.66502 4.33545,5.33365 1.66863,1.66863 3.82891,3.00949 6.49573,4.17157 2.83071,1.16208 6.65961,1.99639 11.8294,2.50294 5.00588,0.491649 12.0082,0.670431 20.6642,0.670431 9.50522,0 17.1779,-0.342665 23.1671,-1.0131 6.16797,-0.655533 10.5034,-1.83251 13.5129,-3.66502 2.99459,-1.83251 4.15667,-4.33545 3.82891,-7.49393 -0.342665,-3.33726 -1.83251,-7.33005 -4.842,-12.3359l-128.32 -204.169 135.665 -216.832z"
   id="glyph18" />
   <glyph
   unicode="т"
   horiz-adv-x="387"
   d="M381.997 427.497c0,-6.49573 -0.327766,-11.9933 -0.998197,-16.4926 -0.670431,-4.66322 -1.66863,-8.34314 -3.15847,-11.1739 -1.50475,-2.99459 -3.17337,-5.16977 -5.00588,-6.65961 -1.99639,-1.50475 -4.49934,-2.17518 -7.33005,-2.17518l-131.509 0 0 -378.823c0,-2.66683 -0.655533,-4.842 -1.99639,-6.67451 -1.32596,-1.66863 -3.33726,-3.33726 -6.33185,-4.66322 -2.99459,-1.16208 -7.00228,-2.16028 -12.3359,-2.83071 -5.16977,-0.670431 -11.8294,-0.998197 -19.9937,-0.998197 -8.00048,0 -14.5111,0.327766 -19.666,0.998197 -5.33365,0.670431 -9.50522,1.66863 -12.4998,2.83071 -3.17337,1.32596 -5.33365,2.99459 -6.51063,4.66322 -1.16208,1.83251 -1.65373,4.00769 -1.65373,6.67451l0 378.823 -131.509 0c-2.50294,0 -4.8271,0.670431 -7.00228,2.17518 -2.16028,1.48985 -3.82891,3.66502 -5.16977,6.65961 -1.16208,2.83071 -2.32416,6.67451 -3.15847,11.3377 -0.834314,4.66322 -1.16208,10.3395 -1.16208,16.8353 0,5.8253 0.327766,10.9951 1.16208,15.4944 0.834314,4.66322 1.99639,8.50702 3.50114,11.5016 1.50475,3.17337 3.15847,5.33365 5.16977,6.8384 1.83251,1.48985 4.15667,2.16028 6.65961,2.16028l344.006 0c2.50294,0 4.8271,-0.670431 7.00228,-2.16028 2.16028,-1.50475 3.82891,-3.66502 5.15487,-6.8384 1.17698,-2.99459 2.33906,-7.00228 3.17337,-11.6655 0.834314,-4.66322 1.16208,-9.99687 1.16208,-15.8371z"
   id="glyph20" />
   <glyph
   unicode="п"
   horiz-adv-x="520"
   d="M446.001 12.172c0,-2.66683 -0.670431,-4.842 -1.99639,-6.67451 -1.34086,-1.66863 -3.33726,-3.33726 -6.33185,-4.66322 -2.84561,-1.16208 -7.00228,-2.16028 -12.172,-2.83071 -5.16977,-0.670431 -11.6655,-0.998197 -19.5021,-0.998197 -8.16436,0 -14.8389,0.327766 -19.9937,0.998197 -5.16977,0.670431 -9.34134,1.66863 -12.4998,2.83071 -3.00949,1.32596 -5.16977,2.99459 -6.51063,4.66322 -1.32596,1.83251 -1.99639,4.00769 -1.99639,6.67451l0 383.829 -208.996 0 0 -383.829c0,-2.66683 -0.670431,-4.842 -1.99639,-6.67451 -1.34086,-1.66863 -3.50114,-3.33726 -6.67451,-4.66322 -2.99459,-1.16208 -7.16616,-2.16028 -12.4998,-2.83071 -5.16977,-0.670431 -11.6655,-0.998197 -19.5021,-0.998197 -8.00048,0 -14.4962,0.327766 -19.666,0.998197 -5.33365,0.670431 -9.49032,1.66863 -12.4998,2.83071 -3.15847,1.32596 -5.33365,2.99459 -6.49573,4.66322 -1.16208,1.83251 -1.66863,4.00769 -1.66863,6.67451l0 422.997c0,9.83299 2.17518,16.9992 6.67451,21.8263 4.32056,4.67812 10.4885,7.00228 18.1612,7.00228l321.837 0c7.65781,0 13.8258,-2.32416 17.9973,-7.00228 4.17157,-4.8271 6.33185,-11.9933 6.33185,-21.8263l0 -422.997z"
   id="glyph22" />
   <glyph
   unicode="г"
   horiz-adv-x="345"
   d="M337.003 428.003c0,-6.49573 -0.342665,-12.0082 -1.17698,-16.5075 -0.819416,-4.49934 -1.99639,-8.32824 -3.48624,-11.159 -1.34086,-3.00949 -3.00949,-5.16977 -4.842,-6.33185 -1.83251,-1.34086 -3.99279,-2.01129 -6.49573,-2.01129l-165.001 0 0 -379.822c0,-2.66683 -0.670431,-4.842 -1.99639,-6.67451 -1.34086,-1.66863 -3.33726,-3.33726 -6.33185,-4.66322 -3.00949,-1.16208 -7.00228,-2.16028 -12.3359,-2.83071 -5.16977,-0.670431 -11.8443,-0.998197 -20.0086,-0.998197 -8.00048,0 -14.4962,0.327766 -19.666,0.998197 -5.33365,0.670431 -9.49032,1.66863 -12.4998,2.83071 -3.15847,1.32596 -5.33365,2.99459 -6.49573,4.66322 -1.16208,1.83251 -1.66863,4.00769 -1.66863,6.67451l0 422.997c0,9.83299 2.17518,16.9992 6.67451,21.8263 4.32056,4.67812 10.3246,7.00228 18.1612,7.00228l221.004 0c2.66683,0 4.8271,-0.670431 6.65961,-2.16028 1.83251,-1.50475 3.33726,-3.66502 4.842,-6.8384 1.48985,-2.99459 2.66683,-6.8384 3.48624,-11.159 0.834314,-4.33545 1.17698,-9.66911 1.17698,-15.8371z"
   id="glyph24" />
   <glyph
   unicode="а"
   horiz-adv-x="479"
   d="M405.998 11.6655c0,-3.82891 -1.32596,-6.8384 -3.82891,-8.83479 -2.66683,-1.99639 -6.16797,-3.33726 -10.8312,-4.33545 -4.49934,-0.998197 -11.1739,-1.48985 -20.0086,-1.48985 -8.32824,0 -15.1666,0.491649 -20.1576,1.48985 -5.00588,0.998197 -8.67091,2.33906 -11.01,4.33545 -2.32416,1.99639 -3.50114,4.842 -3.50114,8.83479l0 43.9952c-19.1594,-20.5003 -40.494,-36.5012 -64.1677,-47.8241 -23.6588,-11.1739 -48.6584,-16.8353 -74.9989,-16.8353 -23.1671,0 -44.1591,2.99459 -62.8268,8.99867 -18.6678,6.00408 -34.6687,14.8389 -47.839,26.1617 -13.1553,11.3377 -23.4949,25.5062 -30.8249,41.9988 -7.33005,16.6714 -11.01,35.503 -11.01,56.6738 0,24.8357 5.00588,46.3342 15.1666,64.4955 10.0118,18.34 24.508,33.5067 43.5035,45.4999 18.8317,12.0082 41.9988,21.1707 69.3375,27.1748 27.3387,5.98918 58.1636,8.99867 92.3258,8.99867l60.6666 0 0 34.3261c0,16.8353 -1.83251,31.838 -5.33365,45.0083 -3.66502,12.9915 -9.32644,23.8226 -17.3269,32.4936 -8.00048,8.67091 -18.34,15.1666 -31.0037,19.5021 -12.6637,4.49934 -28.322,6.65961 -46.8259,6.65961 -19.8299,0 -37.6633,-2.32416 -53.3365,-7.16616 -15.8371,-4.8271 -29.6628,-9.99687 -41.5071,-15.8222 -11.8294,-5.8402 -21.8263,-11.01 -29.8267,-15.8371 -7.83659,-4.8271 -13.8258,-7.16616 -17.6696,-7.16616 -2.66683,0 -4.99099,0.670431 -6.8235,1.99639 -2.01129,1.16208 -3.67992,3.17337 -5.16977,5.8402 -1.50475,2.50294 -2.50294,5.8253 -3.17337,9.83299 -0.670431,4.15667 -0.998197,8.49213 -0.998197,13.498 0,8.00048 0.506548,14.4962 1.66863,19.1594 1.16208,4.67812 3.99279,9.17746 8.32824,13.3341 4.33545,4.17157 12.0082,9.17746 22.6755,15.0028 10.6673,5.66142 23.1671,10.9951 37.1568,15.8371 13.8407,4.66322 29.1712,8.67091 45.8426,11.8294 16.4926,3.17337 33.3279,4.66322 50.1631,4.66322 31.4954,0 58.3275,-3.50114 80.4964,-10.6673 22.1689,-7.16616 40.0024,-17.8335 53.6643,-31.6592 13.6768,-13.8407 23.5098,-31.0037 29.6777,-51.504 6.16797,-20.5003 9.32644,-44.5017 9.32644,-71.8255l0 -296.673zm-80.0048 201.338l-68.8309 0c-21.9901,0 -41.1645,-1.83251 -57.4932,-5.67632 -16.1648,-3.66502 -29.6628,-9.32644 -40.5089,-16.6565 -10.6673,-7.33005 -18.489,-16.001 -23.6588,-26.3405 -5.00588,-10.3246 -7.50883,-22.1689 -7.50883,-35.503 0,-22.8245 7.18106,-41.0006 21.6773,-54.4986 14.4962,-13.498 34.6687,-20.3215 60.8304,-20.3215 21.0068,0 40.6728,5.33365 58.6702,16.1648 17.9973,10.6673 36.9929,27.1599 56.8228,49.3288l0 93.5028z"
   id="glyph26" />
   <glyph
   unicode="с"
   horiz-adv-x="422"
   d="M390.995 79.826c0,-5.49753 -0.163883,-10.3246 -0.491649,-14.3323 -0.342665,-4.15667 -0.834314,-7.49393 -1.66863,-10.3246 -0.834314,-2.83071 -1.83251,-5.16977 -2.99459,-7.33005 -1.17698,-2.17518 -3.67992,-5.33365 -7.83659,-9.34134 -4.00769,-4.17157 -11.01,-9.16256 -20.6642,-15.3305 -9.83299,-6.00408 -20.843,-11.5016 -33.0001,-16.1648 -12.3359,-4.842 -25.5062,-8.67091 -39.8385,-11.5016 -14.3323,-2.99459 -29.1712,-4.49934 -44.5017,-4.49934 -31.6592,0 -59.6684,5.16977 -83.9976,15.6583 -24.508,10.3395 -45.0083,25.5062 -61.337,45.4999 -16.4926,20.0086 -28.9924,44.6805 -37.6633,73.6729 -8.67091,29.1712 -13.0064,62.663 -13.0064,100.833 0,43.1609 5.33365,80.3325 15.8371,111.5 10.6673,31.0037 25.1635,56.495 43.5035,76.3397 18.5039,19.8299 40.1663,34.49 65.002,44.1591 24.9996,9.50522 51.9956,14.3323 81.003,14.3323 13.9897,0 27.4877,-1.32596 40.6579,-3.99279 13.3341,-2.50294 25.3274,-6.00408 36.5012,-10.1757 10.9951,-4.33545 21.0068,-9.16256 29.499,-14.824 8.67091,-5.49753 15.0028,-10.3395 18.8317,-14.1684 4.00769,-4.00769 6.67451,-7.16616 8.16436,-9.34134 1.34086,-2.32416 2.66683,-4.99099 3.66502,-8.16436 0.834314,-2.99459 1.50475,-6.49573 1.84741,-10.5034 0.327766,-3.82891 0.491649,-8.81989 0.491649,-14.6601 0,-12.6637 -1.50475,-21.4985 -4.33545,-26.6683 -2.99459,-4.99099 -6.49573,-7.49393 -10.8312,-7.49393 -4.8271,0 -10.5034,2.66683 -16.8353,8.16436 -6.33185,5.33365 -14.3323,11.3377 -24.1653,17.8335 -9.83299,6.49573 -21.6624,12.4998 -35.503,17.8335 -13.8258,5.49753 -30.1694,8.16436 -49.0011,8.16436 -38.8254,0 -68.667,-14.8389 -89.3312,-44.6656 -20.6642,-29.6628 -31.0037,-72.8386 -31.0037,-129.334 0,-28.173 2.66683,-52.9938 8.00048,-74.3285 5.51243,-21.1707 13.3341,-39.0042 23.8375,-53.3365 10.3395,-14.1684 23.1671,-24.8357 38.3338,-31.838 15.1666,-7.00228 32.5085,-10.5034 51.9956,-10.5034 18.6678,0 35.0114,3.00949 49.0011,8.83479 14.0046,5.8402 26.0127,12.3359 36.3374,19.5021 10.3395,7.00228 18.9955,13.3341 25.9978,18.9955 7.00228,5.8402 12.3359,8.67091 16.3436,8.67091 2.16028,0 4.15667,-0.670431 5.8253,-1.99639 1.66863,-1.34086 2.99459,-3.50114 4.17157,-6.49573 1.16208,-3.17337 1.99639,-7.00228 2.50294,-11.8443 0.491649,-4.66322 0.655533,-10.3246 0.655533,-16.8353z"
   id="glyph28" />
   <glyph
   unicode=" "
   horiz-adv-x="226"
   d=""
   id="glyph30" />
   <glyph
   unicode="о"
   horiz-adv-x="527"
   d="M482.993 237.169c0,-35.8308 -4.66322,-68.8309 -14.1535,-99.0003 -9.34134,-30.0055 -23.5098,-56.0033 -42.1776,-77.8296 -18.6678,-21.8412 -42.1627,-38.8403 -70.1569,-51.0124 -28.173,-12.1571 -60.8453,-18.3251 -97.8382,-18.3251 -36.1735,0 -67.6688,5.33365 -94.501,16.1648 -26.8321,10.6673 -49.1649,26.3405 -66.9984,46.8408 -17.8335,20.5003 -31.1676,45.4999 -40.0024,74.6562 -8.83479,29.3351 -13.1702,62.4991 -13.1702,99.6707 0,35.8308 4.67812,68.8309 13.8407,98.8364 9.32644,30.1694 23.331,56.1672 41.9988,77.9935 18.6678,21.8412 41.9988,38.6764 69.993,50.8336 28.0091,12.0082 60.6666,17.9973 98.0021,17.9973 36.1735,0 67.6688,-5.33365 94.501,-16.1648 26.8321,-10.6673 49.1649,-26.3256 66.9984,-46.8259 17.8335,-20.5003 31.3315,-45.336 40.3302,-74.6711 8.83479,-29.3351 13.3341,-62.3352 13.3341,-99.1642zm-83.9976 -5.16977c0,23.8375 -2.16028,46.3342 -6.65961,67.505 -4.33545,21.1558 -11.6655,39.6597 -21.8412,55.6607 -9.99687,16.001 -23.8226,28.6647 -41.1645,37.8421 -17.163,9.32644 -38.8254,13.9897 -64.6593,13.9897 -23.8375,0 -44.3378,-4.15667 -61.5009,-12.6637 -17.163,-8.49213 -31.1676,-20.5003 -42.3414,-35.9947 -11.159,-15.5093 -19.3233,-33.8344 -24.657,-55.0051 -5.51243,-21.1707 -8.17926,-44.3378 -8.17926,-69.3375 0,-24.1653 2.17518,-46.8259 6.67451,-67.9966 4.33545,-21.1707 11.6655,-39.6597 22.005,-55.4968 10.3246,-15.6732 24.1653,-28.3369 41.3283,-37.4994 17.3269,-9.34134 39.0042,-14.0046 64.8381,-14.0046 23.4949,0 43.8313,4.17157 61.1582,12.6637 17.3418,8.50702 31.5103,20.3364 42.6692,35.6669 11.1739,15.3454 19.3382,33.6705 24.4931,54.8413 5.16977,21.1707 7.83659,44.5017 7.83659,69.8291z"
   id="glyph32" />
   <glyph
   unicode="л"
   horiz-adv-x="510"
   d="M436.004 12.172c0,-2.66683 -0.670431,-4.842 -1.99639,-6.67451 -1.34086,-1.66863 -3.33726,-3.33726 -6.34675,-4.66322 -2.83071,-1.16208 -6.98738,-2.16028 -12.1571,-2.83071 -5.16977,-0.670431 -11.6655,-0.998197 -19.5021,-0.998197 -8.16436,0 -14.8389,0.327766 -20.0086,0.998197 -5.15487,0.670431 -9.32644,1.66863 -12.4998,2.83071 -2.99459,1.32596 -5.15487,2.99459 -6.49573,4.66322 -1.32596,1.83251 -1.99639,4.00769 -1.99639,6.67451l0 383.829 -121.005 0c-5.15487,-51.6679 -11.5016,-97.6743 -18.8317,-138.004 -7.33005,-40.3302 -15.4944,-75.4905 -24.657,-105.496 -9.17746,-29.8267 -19.5021,-55.169 -30.8398,-75.6693 -11.3377,-20.5003 -23.8375,-36.9929 -37.3356,-49.4927 -13.6619,-12.4998 -28.3369,-21.4985 -44.1591,-27.0109 -15.6732,-5.49753 -32.6723,-8.32824 -50.5058,-8.32824 -2.99459,0 -5.49753,0.506548 -7.67271,1.50475 -1.99639,0.998197 -3.82891,2.66683 -5.15487,5.33365 -1.17698,2.48804 -2.17518,6.16797 -2.84561,10.9951 -0.655533,4.66322 -0.998197,10.6673 -0.998197,18.1612 0,7.83659 0.178782,14.1684 0.670431,19.0104 0.506548,4.8271 1.34086,8.83479 2.50294,11.6655 1.16208,2.99459 2.66683,4.8271 4.33545,5.8253 1.83251,0.998197 3.99279,1.50475 6.65961,1.50475 10.8312,0 21.0068,2.50294 30.8398,7.49393 9.66911,5.16977 18.8317,13.5129 27.3238,24.9996 8.50702,11.5016 16.5075,26.6683 24.0014,45.336 7.34494,18.8317 14.1684,41.8349 20.5003,69.1736 6.16797,27.3238 12.0082,59.3257 17.5057,95.9908 5.49753,36.5012 10.8312,78.6788 15.6583,126.175 0.670431,9.83299 3.00949,16.9992 7.18106,21.8263 3.99279,4.67812 9.83299,7.00228 17.3269,7.00228l225.667 0c7.67271,0 13.8258,-2.32416 18.1612,-7.16616 4.49934,-4.66322 6.67451,-11.8294 6.67451,-21.6624l0 -422.997z"
   id="glyph34" />
   <glyph
   unicode="и"
   horiz-adv-x="540"
   d="M465.994 11.6655c0,-2.33906 -0.655533,-4.49934 -1.99639,-6.33185 -1.32596,-1.99639 -3.33726,-3.50114 -6.33185,-4.66322 -2.83071,-1.17698 -7.00228,-1.99639 -12.172,-2.66683 -5.15487,-0.670431 -11.6655,-0.998197 -19.4872,-0.998197 -7.83659,0 -14.3472,0.327766 -19.5021,0.998197 -5.16977,0.670431 -9.50522,1.48985 -12.6786,2.66683 -3.32236,1.16208 -5.49753,2.66683 -6.8235,4.66322 -1.34086,1.99639 -1.99639,3.99279 -1.99639,6.33185l0 253.006c0,12.8276 0.327766,25.6552 0.998197,38.9893 0.655533,13.1702 1.48985,26.0127 2.50294,38.8403 -7.50883,-13.1702 -15.8371,-25.8339 -24.6719,-38.4976 -8.99867,-12.4998 -17.9973,-24.9996 -26.996,-37.3356l-186.171 -255.002c-2.33906,-2.66683 -4.33545,-4.8271 -6.16797,-6.8384 -1.83251,-1.99639 -4.17157,-3.50114 -6.8384,-4.66322 -2.83071,-1.16208 -6.33185,-1.99639 -10.6673,-2.50294 -4.15667,-0.491649 -9.49032,-0.655533 -15.6583,-0.655533 -7.16616,0 -13.1702,0.327766 -17.6696,0.998197 -4.66322,0.670431 -8.32824,1.48985 -10.9951,2.66683 -2.84561,1.16208 -4.842,2.66683 -6.00408,4.66322 -1.16208,1.99639 -1.66863,3.99279 -1.66863,6.33185l0 440.667c0,2.33906 0.506548,4.33545 1.66863,6.33185 1.16208,1.99639 3.33726,3.66502 6.49573,4.842 3.00949,1.32596 7.16616,2.32416 12.4998,2.83071 5.16977,0.491649 11.5016,0.670431 19.1743,0.670431 15.6583,0 26.4895,-1.17698 32.3297,-3.67992 5.8402,-2.48804 8.83479,-6.16797 8.83479,-10.9951l0 -254.496c0,-12.6637 -0.327766,-25.3423 -0.998197,-37.8421 -0.670431,-12.6637 -1.50475,-24.9996 -2.50294,-37.4994 7.49393,12.4998 15.1666,24.508 22.8393,36.5012 7.49393,11.8443 15.8222,23.5098 24.4931,34.8326l188.674 258.503c1.83251,2.66683 3.82891,4.8271 5.98918,6.67451 2.17518,1.83251 4.66322,3.32236 7.83659,4.32056 2.99459,1.17698 6.65961,1.83251 10.9951,2.33906 4.17157,0.506548 9.66911,0.834314 16.5075,0.834314 6.8384,0 12.6637,-0.327766 17.3269,-0.834314 4.842,-0.506548 8.50702,-1.32596 11.3377,-2.66683 2.66683,-1.32596 4.66322,-2.83071 5.8402,-4.8271 1.16208,-2.01129 1.65373,-4.17157 1.65373,-6.8384l0 -439.669z"
   id="glyph36" />
   <glyph
   unicode="е"
   horiz-adv-x="497"
   d="M448.995 251.173c0,-12.6786 -3.15847,-21.6773 -9.49032,-27.1748 -6.33185,-5.33365 -13.6768,-8.00048 -21.8412,-8.00048l-288.658 0c0,-24.4931 2.48804,-46.4981 7.33005,-66.0002 4.8271,-19.666 12.9915,-36.5012 24.4931,-50.4909 11.3377,-14.0046 26.1766,-24.6719 44.3378,-32.1807 18.34,-7.49393 40.6728,-11.3228 66.9984,-11.3228 20.8281,0 39.4958,1.66863 55.6756,5.16977 16.3287,3.32236 30.4972,7.16616 42.3265,11.3228 11.8294,4.17157 21.6624,8.00048 29.3351,11.3377 7.65781,3.50114 13.3341,5.16977 17.3269,5.16977 2.33906,0 4.33545,-0.506548 6.16797,-1.66863 1.66863,-1.16208 3.17337,-2.83071 4.00769,-5.16977 0.998197,-2.16028 1.83251,-5.33365 2.32416,-9.32644 0.506548,-4.17157 0.670431,-8.99867 0.670431,-14.8389 0,-4.17157 -0.163883,-7.83659 -0.506548,-10.9951 -0.327766,-3.00949 -0.655533,-5.8402 -1.16208,-8.16436 -0.491649,-2.50294 -1.32596,-4.67812 -2.50294,-6.67451 -1.16208,-1.83251 -2.48804,-3.66502 -4.32056,-5.49753 -1.84741,-1.83251 -7.18106,-4.66322 -15.8371,-8.67091 -8.83479,-4.15667 -20.1725,-8.00048 -34.1771,-11.9933 -13.9897,-3.8438 -30.1545,-7.33005 -48.4945,-10.3395 -18.3251,-3.15847 -37.8272,-4.66322 -58.6702,-4.66322 -36.1586,0 -67.6688,5.00588 -94.8287,15.1666 -27.1599,9.99687 -49.9993,24.9996 -68.5032,44.8295 -18.5039,20.0086 -32.4936,44.8295 -41.8349,74.835 -9.49032,29.8416 -14.1684,64.6742 -14.1684,104.498 0,37.6633 4.842,71.6765 14.675,101.831 9.66911,30.0055 23.8375,55.6756 42.1627,76.6675 18.34,21.0068 40.6728,37.0078 66.6706,48.3306 25.9978,11.1739 55.169,16.8353 87.3348,16.8353 34.49,0 63.825,-5.49753 87.9903,-16.6565 24.3441,-11.01 44.174,-25.9978 59.8471,-44.6656 15.4944,-18.6678 26.996,-40.6728 34.3261,-66.0002 7.33005,-25.1784 10.9951,-52.1744 10.9951,-80.8391l0 -14.6601zm-80.9881 23.8226c0.998197,42.3414 -8.34314,75.6693 -28.173,99.8346 -19.8299,24.1653 -49.0011,36.1735 -87.8414,36.1735 -19.9937,0 -37.4994,-3.66502 -52.4873,-11.1739 -15.0028,-7.49393 -27.5026,-17.4908 -37.6782,-29.9906 -10.1608,-12.3359 -17.9973,-26.8321 -23.4949,-43.1758 -5.49753,-16.4926 -8.67091,-33.6705 -9.32644,-51.6679l239.001 0z"
   id="glyph38" />
   <glyph
   unicode="в"
   horiz-adv-x="479"
   d="M436.004 138.66c0,-23.1671 -4.33545,-43.8313 -13.1702,-61.8286 -8.83479,-18.1612 -21.8263,-33.164 -39.1681,-45.4999 -17.163,-12.172 -38.6615,-21.4985 -64.3316,-27.8303 -25.8339,-6.33185 -55.8395,-9.50522 -90.0016,-9.50522 -10.6673,0 -21.1707,0 -31.1676,0.163883 -10.1608,0.178782 -19.9937,0.506548 -29.3351,1.0131 -9.49032,0.491649 -18.8317,1.16208 -28.1581,1.83251 -9.17746,0.491649 -18.5039,1.32596 -27.5026,2.32416 -13.1702,1.66863 -22.6755,6.00408 -28.8285,13.0064 -6.16797,7.00228 -9.34134,17.3269 -9.34134,31.0037l0 378.332c0,13.3341 2.99459,23.6588 8.99867,30.8249 6.00408,7.16616 15.3305,11.3377 27.6665,12.6637 8.50702,1.0131 17.5057,1.84741 27.1748,2.50294 9.49032,0.506548 19.3233,1.17698 29.499,1.66863 10.1608,0.506548 20.5003,0.834314 31.3315,1.16208 10.6673,0.342665 21.4985,0.506548 32.6574,0.506548 31.6741,0 59.0128,-2.66683 82.0012,-7.83659 23.1671,-5.16977 42.3414,-12.8276 57.672,-22.8245 15.3305,-10.1757 26.6683,-22.5116 33.9983,-37.1717 7.33005,-14.6601 10.9951,-31.3315 10.9951,-50.1631 0,-24.6719 -6.65961,-45.8426 -19.8299,-63.4973 -13.1702,-17.5057 -32.6574,-30.0055 -58.3275,-37.5143 32.1658,-6.8235 56.495,-19.9937 72.8237,-39.4958 16.1797,-19.666 24.3441,-44.1591 24.3441,-73.8368zm-97.0039 203.841c0,10.6673 -1.99639,20.1725 -5.8402,28.6647 -3.99279,8.32824 -10.3246,15.4944 -19.3233,21.3346 -8.99867,5.8402 -20.6642,10.1608 -34.8326,13.1702 -14.1684,2.83071 -31.3315,4.33545 -51.6679,4.33545 -15.3305,0 -29.3351,-0.342665 -41.9988,-1.17698 -12.8425,-0.834314 -23.5098,-1.83251 -32.3297,-2.66683l0 -136.157 82.165 0c33.6556,0 59.3257,6.16797 77.1592,18.6678 17.8335,12.4998 26.6683,30.4972 26.6683,53.8282zm14.0046 -205.003c0,13.0064 -2.33906,24.508 -6.8384,34.341 -4.49934,9.99687 -11.8294,18.1612 -21.6624,24.657 -9.99687,6.51063 -22.6755,11.3377 -38.1699,14.675 -15.3305,3.15847 -33.6705,4.8271 -54.8264,4.8271l-78.5 0 0 -155.659c6.15307,-0.998197 12.6637,-1.66863 19.3233,-2.17518 6.67451,-0.491649 13.498,-0.998197 20.5003,-1.48985 7.00228,-0.506548 13.8407,-0.834314 20.843,-1.17698 6.98738,-0.327766 13.498,-0.491649 19.3233,-0.491649 21.1707,0 39.1681,1.83251 54.1708,5.66142 15.0028,3.66502 27.3387,9.16256 37.3356,16.3287 9.83299,7.16616 17.163,15.8371 21.6624,25.9978 4.49934,10.3395 6.8384,21.8412 6.8384,34.5048z"
   id="glyph40" />
  </font>
  <font
   id="FontID0"
   horiz-adv-x="667"
   font-variant="normal"
   font-style="normal"
   font-weight="400"
   horiz-origin-x="0"
   horiz-origin-y="0"
   vert-origin-x="45"
   vert-origin-y="90"
   vert-adv-y="90"
   style="font-style:normal;font-variant:normal;font-weight:400">
	<font-face
   font-family="Arial"
   id="font-face43">
		<font-face-src>
			<font-face-name
   name="Arial" />
		</font-face-src>
	</font-face>
   <missing-glyph
   id="missing-glyph47"><path
     d="M0 0z"
     id="path45" /></missing-glyph>
   <glyph
   unicode="w"
   horiz-adv-x="722"
   d="M159.33 0l-156.826 518.998 91.9957 0 82.8304 -299.503 29.3385 -111.496c1.16929,5.50392 10.1693,41.1613 26.8345,106.996l82.169 304.003 90.165 0 78.165 -301.333 25.4999 -98.8343 29.8345 100.169 89.6689 299.999 85.4997 0 -162.838 -518.998 -91.0036 0 -82.3343 310.499 -20.8346 88.8304 -105 -399.329 -93.165 0z"
   id="glyph49" />
   <glyph
   unicode="D"
   horiz-adv-x="722"
   d="M76.9967 0l0 716.002 246.687 0c55.6658,0 98.1504,-3.33073 127.489,-10.1694 40.9964,-9.49614 76.0045,-26.6813 104.989,-51.3429 37.8428,-31.9963 66.0123,-72.6384 84.6857,-122.316 18.8151,-49.6776 28.1695,-106.513 28.1695,-170.328 0,-54.3548 -6.34257,-102.509 -19.0277,-144.497 -12.6497,-42.024 -28.9845,-76.8549 -48.8272,-104.351 -19.9844,-27.4963 -41.6696,-49.1461 -65.3391,-64.843 -23.4923,-15.8033 -51.9807,-27.8152 -85.3235,-36.0003 -33.4845,-8.14967 -71.8234,-12.1536 -115.158,-12.1536l-258.345 0zm94.9968 84.0125l152.682 0c47.1618,0 84.1542,4.32287 110.977,13.1458 26.8585,8.85834 48.1894,21.1891 64.1698,37.1696 22.3584,22.5002 39.8271,52.8311 52.3351,90.8511 12.508,37.9846 18.8505,83.977 18.8505,138.155 0,75.0124 -12.3308,132.662 -36.8507,172.986 -24.4844,40.3586 -54.3193,67.3588 -89.5046,81.0006 -25.3348,9.85047 -66.1541,14.6694 -122.493,14.6694l-150.167 0 0 -547.977z"
   id="glyph51" />
   <glyph
   unicode="3"
   horiz-adv-x="556"
   d="M41.9885 189.994l88.0164 12.0119c10.1694,-49.9965 27.1774,-85.9967 51.3429,-108.001 24.1655,-22.0041 53.8233,-32.9884 88.9731,-32.9884 41.6696,0 76.8549,14.3151 105.166,42.9807 28.3467,28.6656 42.52,64.1698 42.52,106.513 0,40.3232 -13.1812,73.6659 -39.6854,99.9929 -26.327,26.1498 -59.8115,39.331 -100.666,39.331 -16.6537,0 -37.3113,-3.33073 -62.1501,-9.85047l9.81504 77.0321c5.8465,-0.673234 10.6654,-1.02757 14.1733,-1.02757 37.6657,0 71.3273,9.85047 101.517,29.3388 29.9766,19.5238 45.0004,49.5004 45.0004,90.0007 0,32.1735 -11.0198,58.8548 -32.8467,80.0085 -21.8269,21.1537 -49.9965,31.6774 -84.5085,31.6774 -34.3349,0 -62.8233,-10.8426 -85.6424,-32.5278 -22.8545,-21.6498 -37.5239,-54.1422 -44.0082,-97.4771l-88.0164 15.9804c10.8426,58.9965 35.1853,104.847 73.347,137.34 37.9846,32.4924 85.5007,48.6854 142.159,48.6854 39.0121,0 75.0124,-8.36227 107.824,-25.1931 33.0239,-16.6537 58.1816,-39.4728 75.5085,-68.3155 17.5041,-29.0199 26.1852,-59.6698 26.1852,-92.1621 0,-30.827 -8.36227,-58.8548 -24.8388,-84.1896 -16.6891,-25.3348 -41.3507,-45.4964 -73.8431,-60.4847 42.3429,-9.6733 75.1541,-30.012 98.6819,-60.8391 23.3151,-30.6498 34.9727,-69.3431 34.9727,-115.513 0,-62.469 -22.8191,-115.654 -68.3155,-159.167 -45.6736,-43.4767 -103.324,-65.1619 -172.986,-65.1619 -62.8588,0 -115.017,18.8505 -156.509,56.339 -41.6696,37.5239 -65.3391,85.9967 -71.1856,145.667z"
   id="glyph53" />
   <glyph
   unicode="f"
   horiz-adv-x="277"
   d="M86.9997 0l0 451.002 -77.9997 0 0 67.9958 77.9997 0 0 55.0037c0,34.8306 2.99999,60.6612 9.16532,77.5036 8.5039,22.6653 23.1731,41.1613 44.5038,55.3226 21.1653,14.1732 50.9998,21.1771 89.3264,21.1771 24.8385,0 52.1691,-2.99999 82.169,-8.83461l-13.1692 -77.0076c-18.3306,3.16534 -35.492,4.8425 -51.8266,4.8425 -26.6692,0 -45.4959,-5.66927 -56.6691,-17.0078 -10.996,-11.3267 -16.4999,-32.492 -16.4999,-63.4958l0 -47.5037 100.996 0 0 -67.9958 -99.9917 0 0 -451.002 -88.0036 0z"
   id="glyph55" />
   <glyph
   unicode="0"
   horiz-adv-x="556"
   d="M41.9885 353.341c0,84.5085 8.68117,152.824 26.0081,204.486 17.5041,51.839 43.335,91.6661 77.6699,119.517 34.1577,27.8152 77.351,41.6696 129.332,41.6696 38.3389,0 72.0006,-7.68904 101.162,-23.1734 29.0199,-15.5198 53.0083,-37.8428 71.6817,-67.0045 18.6734,-29.0199 33.3073,-64.4887 44.0082,-106.335 10.8072,-41.8468 16.1576,-98.3275 16.1576,-169.159 0,-84.0125 -8.68117,-152.009 -25.8309,-203.671 -17.1852,-51.839 -43.0161,-91.6661 -77.351,-119.658 -34.1577,-28.0278 -77.4927,-42.024 -129.828,-42.024 -68.847,0 -122.989,24.5199 -162.32,73.6659 -47.1618,60.0241 -70.6895,157.182 -70.6895,291.687zm90.0007 -0.354333c0,-117.816 13.6773,-196.159 41.1736,-234.817 27.4963,-38.835 61.5123,-58.1816 101.835,-58.1816 40.3232,0 74.3392,19.5238 101.835,58.3587 27.4963,38.9767 41.1736,117.143 41.1736,234.64 0,117.851 -13.6773,196.194 -41.1736,234.852 -27.3191,38.835 -61.654,58.1461 -102.828,58.1461 -40.3232,0 -72.6738,-17.1497 -96.8393,-51.3075 -30.1538,-43.5122 -45.1775,-124.194 -45.1775,-241.691z"
   id="glyph57" />
   <glyph
   unicode="R"
   horiz-adv-x="722"
   d="M79.0164 0l0 716.002 317.306 0c63.8509,0 112.359,-6.4843 145.525,-19.3466 33.1656,-12.8269 59.6698,-35.5042 79.477,-67.9966 19.8427,-32.4924 29.6931,-68.4927 29.6931,-107.824 0,-50.8469 -16.5119,-93.6858 -49.3587,-128.517 -32.8113,-34.831 -83.481,-56.8351 -152.151,-66.3312 25.1577,-11.9765 44.15,-23.9884 57.154,-35.6459 27.6734,-25.3348 53.8233,-57.1894 78.3431,-95.3511l123.84 -194.99 -118.347 0 -94.6779 148.997c-27.4963,43.1578 -50.3154,76.0045 -68.1383,98.8236 -18.0001,22.8545 -34.016,38.6932 -48.1894,47.835 -13.9962,9.00007 -28.4884,15.3426 -43.1578,19.0277 -10.6654,2.16143 -28.1695,3.33073 -52.654,3.33073l-109.666 0 0 -318.014 -94.9968 0zm94.9968 400.007l203.317 0c43.335,0 76.9967,4.50004 101.339,13.5001 24.3427,8.8229 42.8389,23.1734 55.3469,42.9807 12.6497,19.6655 18.9923,40.9964 18.9923,64.1698 0,33.8388 -12.1891,61.8312 -36.6735,83.6581 -24.4844,21.8624 -63.1777,32.6695 -116.009,32.6695l-226.313 0 0 -236.978z"
   id="glyph59" />
   <glyph
   unicode="t"
   horiz-adv-x="277"
   d="M256.998 78.4849l12.0119 -77.6345c-24.6616,-5.17327 -46.8429,-7.8662 -66.1895,-7.8662 -31.8191,0 -56.4808,5.03154 -74.162,15.1655 -17.5041,10.1694 -29.8349,23.3506 -36.9924,39.8625 -7.15754,16.4765 -10.6654,51.1658 -10.6654,103.997l0 298.987 -64.9848 0 0 67.9966 64.9848 0 0 128.34 88.0164 52.8311 0 -181.171 87.981 0 0 -67.9966 -87.981 0 0 -303.983c0,-25.1931 1.4882,-41.3507 4.64177,-48.5083 3.01183,-7.15754 8.00794,-12.8269 15.0237,-17.1852 6.98037,-4.1457 16.9726,-6.30714 29.9766,-6.30714 9.6733,0 22.5002,1.1693 38.3389,3.47247z"
   id="glyph61" />
   <glyph
   unicode="A"
   horiz-adv-x="666"
   d="M-1.4882 0l274.644 716.002 104.174 0 291.51 -716.002 -107.824 0 -82.8432 216.994 -301.502 0 -77.6699 -216.994 -100.489 0zm205.974 293.991l244.029 0 -74.6935 198.498c-22.5002,60.343 -39.4728,110.162 -51.3075,149.529 -9.85047,-46.7012 -23.0317,-92.5165 -39.5082,-137.836l-78.5203 -210.191z"
   id="glyph63" />
   <glyph
   unicode="c"
   horiz-adv-x="500"
   d="M404.998 190.003l85.9957 -12c-9.49603,-59.173 -33.4959,-105.342 -72.3304,-138.838 -38.8345,-33.4959 -86.669,-50.1612 -143.161,-50.1612 -70.8304,0 -127.842,23.1613 -170.834,69.4958 -43.1691,46.3345 -64.6651,112.665 -64.6651,199.003 0,55.9958 9.33067,104.834 27.8267,146.834 18.5078,41.8345 46.6652,73.3344 84.6729,94.1571 37.8306,21.0117 78.9918,31.5117 123.661,31.5117 56.173,0 102.33,-14.1732 137.999,-42.6731 35.8345,-28.4999 58.8305,-68.9997 68.8344,-121.334l-85.0036 -13.0039c-8.16139,34.8424 -22.4999,61.0037 -43.3227,78.6729 -20.6692,17.5039 -45.673,26.3267 -74.9997,26.3267 -44.3384,0 -80.3383,-15.8267 -108.177,-47.4919 -27.6613,-31.8306 -41.492,-81.8383 -41.492,-150.507 0,-69.6611 13.3346,-120.165 39.992,-151.665 26.8345,-31.4999 61.6769,-47.3266 104.504,-47.3266 34.6652,0 63.4958,10.5 86.5036,31.6652 23.1613,20.9999 37.8306,53.4919 43.9959,97.3343z"
   id="glyph65" />
   <glyph
   unicode="-"
   horiz-adv-x="333"
   d="M31.0042 215.01l0 87.981 271.986 0 0 -87.981 -271.986 0z"
   id="glyph67" />
   <glyph
   unicode="O"
   horiz-adv-x="777"
   d="M48.0122 348.487c0,118.666 31.9963,211.679 95.8118,278.86 63.8509,67.1462 146.163,100.666 247.183,100.666 66.1541,0 125.647,-15.8387 178.832,-47.339 53.0083,-31.5002 93.5086,-75.5085 121.324,-132.025 27.8506,-56.3036 41.8468,-120.332 41.8468,-191.801 0,-72.5321 -14.6694,-137.517 -44.0082,-194.671 -29.3388,-57.3312 -70.8313,-100.666 -124.513,-130.005 -53.8233,-29.516 -111.828,-44.1854 -173.978,-44.1854 -67.5005,0 -127.666,16.3348 -180.852,48.8626 -53.0083,32.4924 -93.3314,76.8195 -120.651,133.159 -27.3545,56.1619 -40.9964,115.654 -40.9964,178.478zm97.9732 -1.66537c0,-86.1385 23.1734,-153.993 69.5202,-203.494 46.3114,-49.5004 104.493,-74.3392 174.509,-74.3392 71.3273,0 129.828,25.0159 175.997,75.0124 45.9925,49.9965 68.9887,121.005 68.9887,212.99 0,58.1816 -9.85047,108.993 -29.516,152.328 -19.6655,43.335 -48.4728,76.9967 -86.3156,100.843 -38.02,23.8466 -80.5046,35.8231 -127.666,35.8231 -67.0045,0 -124.655,-22.9962 -172.986,-68.9887 -48.3665,-45.9925 -72.5321,-122.67 -72.5321,-230.175z"
   id="glyph69" />
   <glyph
   unicode=";"
   horiz-adv-x="277"
   d="M89.0086 418.999l0 99.9929 99.9929 0 0 -99.9929 -99.9929 0zm0 -418.999l0 99.9929 99.9929 0 0 -99.9929c0,-36.8507 -6.4843,-66.6501 -19.6655,-89.3275 -13.004,-22.6773 -33.8388,-40.3232 -62.3273,-52.6894l-24.0238 37.7011c18.6734,8.14967 32.3506,20.1616 41.0318,35.9649 8.8229,15.8387 13.819,38.6932 14.8111,68.3509l-49.8193 0z"
   id="glyph71" />
   <glyph
   unicode="k"
   horiz-adv-x="500"
   d="M66.3312 0l0 716.002 88.0164 0 0 -407.838 207.994 210.828 113.67 0 -198.002 -192.828 217.986 -326.164 -108.32 0 -172.348 265.183 -60.9808 -59.3509 0 -205.832 -88.0164 0z"
   id="glyph73" />
   <glyph
   unicode="8"
   horiz-adv-x="556"
   d="M177.486 388.172c-36.4964,13.3229 -63.4966,32.4924 -81.1424,57.154 -17.5041,24.8388 -26.327,54.4965 -26.327,89.0086 0,52.1579 18.6379,95.8472 55.9847,131.316 37.4885,35.5042 87.166,53.3626 149.316,53.3626 62.3627,0 112.678,-18.1773 150.698,-54.4965 37.9846,-36.3546 56.9768,-80.5046 56.9768,-132.698 0,-33.1656 -8.64574,-62.1501 -26.0081,-86.67 -17.3269,-24.6616 -43.6539,-43.6539 -79.1581,-56.9768 43.8311,-14.3505 76.9967,-37.3468 99.8512,-69.3431 22.8191,-31.8191 34.3349,-69.8391 34.3349,-114.166 0,-61.158 -21.6852,-112.501 -64.843,-154.171 -43.335,-41.6696 -100.17,-62.5044 -170.682,-62.5044 -70.4769,0 -127.312,20.8348 -170.647,62.6816 -43.1578,41.8468 -64.843,94.0047 -64.843,156.509 0,46.4886 11.8347,85.5007 35.5042,116.824 23.6695,31.5002 57.3312,52.8311 100.985,64.1698zm-17.4686 149.316c0,-33.9806 10.8072,-61.654 32.3152,-83.1621 21.6852,-21.508 49.9965,-32.3152 85.1818,-32.3152 34.1577,0 61.8312,10.6654 83.3038,31.9963 21.508,21.3309 32.1735,47.4807 32.1735,78.4849 0,32.3506 -10.9843,59.4926 -33.1656,81.4967 -22.0041,22.0041 -49.8193,33.0239 -83.3392,33.0239 -33.8034,0 -61.654,-10.8426 -83.6581,-32.3506 -21.8269,-21.508 -32.8113,-47.1618 -32.8113,-77.1738zm-29.0199 -330.983c0,-25.1577 5.8465,-49.3232 17.5041,-72.851 11.6576,-23.3151 29.3388,-41.4925 53.0083,-54.3193 23.4923,-12.8269 48.8272,-19.3466 75.6502,-19.3466 42.3429,0 76.9967,13.5001 104.174,40.5003 27.1774,27.0002 40.6775,61.3351 40.6775,103.005 0,42.3429 -13.9962,77.351 -41.8468,104.989 -27.9923,27.6734 -63.3194,41.5279 -105.839,41.5279 -41.6696,0 -75.8274,-13.6773 -102.828,-40.9964 -27.0002,-27.3545 -40.5003,-61.5123 -40.5003,-102.509z"
   id="glyph75" />
   <glyph
   unicode="h"
   horiz-adv-x="556"
   d="M65.9997 0l0 716.005 88.0036 0 0 -257.668c40.8305,47.8345 92.3264,71.669 154.665,71.669 38.1613,0 71.3265,-7.49997 99.661,-22.6771 28.1692,-15.1653 48.3423,-35.9999 60.5076,-62.6572 12.1653,-26.6692 18.1653,-65.5037 18.1653,-116.173l0 -328.499 -88.0036 0 0 328.168c0,43.8305 -9.49603,75.8265 -28.3345,95.8343 -18.9921,19.996 -45.6612,29.9999 -80.3265,29.9999 -25.8424,0 -50.173,-6.6732 -73.0036,-20.1731 -22.8306,-13.4999 -38.9998,-31.8306 -48.8384,-54.9919 -9.66138,-23.0078 -14.4921,-54.8384 -14.4921,-95.5036l0 -283.334 -88.0036 0z"
   id="glyph77" />
   <glyph
   unicode="y"
   horiz-adv-x="500"
   d="M62.0084 -199.49l-9.9922 81.3195c19.3112,-5.17327 36.0003,-7.83077 50.3154,-7.83077 19.6655,0 35.327,3.33073 46.9846,9.85047 11.8347,6.4843 21.508,15.6615 29.0199,27.3191 5.49217,8.8229 14.4922,30.6498 26.823,65.658 1.66537,4.85437 4.18114,12.0119 7.83077,21.508l-196.974 520.658 93.9692 0 108.355 -299.66c14.1733,-37.8428 26.6459,-77.8471 37.8428,-119.836 10.1339,39.5082 22.1458,78.5203 36.142,116.824l110.658 302.672 87.8393 0 -196.159 -527.992c-21.1537,-56.8351 -37.6657,-95.8472 -49.5004,-117.32 -15.6615,-28.8427 -33.6617,-49.9965 -53.8233,-63.4966 -20.3387,-13.5001 -44.5043,-20.197 -72.4966,-20.197 -17.008,0 -36.0003,3.5079 -56.8351,10.5237z"
   id="glyph79" />
   <glyph
   unicode="F"
   horiz-adv-x="610"
   d="M81.9928 0l0 716.002 482.992 0 0 -84.0125 -387.995 0 0 -222.982 336.014 0 0 -84.0125 -336.014 0 0 -324.995 -94.9968 0z"
   id="glyph81" />
   <glyph
   unicode="W"
   horiz-adv-x="943"
   d="M200.517 0l-188.505 716.002 98.3275 0 107.328 -469.492c11.6576,-49.1815 22.0041,-98.0086 30.827,-146.34 18.8505,76.3234 29.8349,120.332 32.9884,131.989l135.355 483.842 114.166 0 102.65 -362.519c25.1931,-90.0007 43.8311,-174.474 55.843,-253.313 9.49614,45.1775 21.6852,96.9811 36.4964,155.482l111.828 460.35 95.174 0 -195.982 -716.002 -92.1976 0 -150.167 545.496c-12.6497,45.6736 -20.3033,73.6659 -23.138,84.0125 -8.1851,-32.6695 -15.5198,-60.6619 -21.8624,-83.8353l-150.167 -545.674 -98.9653 0z"
   id="glyph83" />
   <glyph
   unicode="5"
   horiz-adv-x="556"
   d="M41.9885 188.009l92.0204 6.98037c6.83864,-44.8232 22.6419,-78.4849 47.339,-101.162 24.6616,-22.5002 54.8154,-33.8388 90.3196,-33.8388 42.8389,0 78.662,16.0159 107.824,47.835 29.0199,31.9963 43.5122,74.3392 43.5122,126.993 0,50.1736 -13.819,89.6818 -41.6696,118.666 -27.8506,29.0199 -64.6659,43.5122 -110.517,43.5122 -28.4884,0 -54.0004,-6.4843 -76.6423,-19.4883 -22.5002,-13.004 -40.1814,-29.8349 -53.1855,-50.4925l-82.9849 11.9765 68.9887 368.011 355.007 0 0 -84.0125 -284.849 0 -38.1617 -193.147c42.8389,30.1538 87.8393,45.1421 134.859,45.1421 62.3273,0 114.981,-21.6498 157.82,-64.9848 42.8389,-43.335 64.347,-99.0008 64.347,-166.997 0,-64.843 -18.8505,-120.828 -56.5162,-167.99 -45.8153,-58.0044 -108.497,-87.0243 -187.832,-87.0243 -64.9848,0 -117.993,18.3545 -159.167,54.8508 -41.1736,36.4964 -64.6659,84.8274 -70.5124,145.17z"
   id="glyph85" />
   <glyph
   unicode="2"
   horiz-adv-x="556"
   d="M503.012 84.0125l0 -84.0125 -474.027 0c-0.6378,21.1537 2.83467,41.4925 10.3465,61.158 12.1536,32.1735 31.6774,63.9926 58.5005,95.174 26.823,31.1813 65.1619,67.1816 115.017,108.001 77.4927,63.8509 130.147,114.343 157.643,151.655 27.6734,37.3468 41.4925,72.6738 41.4925,106.017 0,34.831 -12.4725,64.1698 -37.4885,88.1582 -24.9805,23.8466 -57.6501,35.8231 -97.8315,35.8231 -42.4846,0 -76.5006,-12.6497 -102.013,-37.9846 -25.4766,-25.1577 -38.3035,-60.1658 -38.6578,-104.989l-90.0007 9.00007c6.1654,67.3234 29.516,118.666 69.8391,153.993 40.5003,35.327 94.6779,53.0083 162.852,53.0083 68.6344,0 123.166,-19.0277 163.135,-57.1894 40.1814,-38.1617 60.1658,-85.5007 60.1658,-141.84 0,-28.6656 -5.81107,-56.8351 -17.6458,-84.4731 -11.6576,-27.8506 -31.1813,-57.0123 -58.3233,-87.6621 -27.3545,-30.5081 -72.5321,-72.6738 -135.533,-126.001 -52.8311,-44.3626 -86.8117,-74.3392 -101.8,-90.1779 -15.0237,-15.8387 -27.3545,-31.6774 -37.1696,-47.6579l351.499 0z"
   id="glyph87" />
   <glyph
   unicode="C"
   horiz-adv-x="722"
   d="M586.989 251.152l94.9968 -23.9884c-19.8072,-77.8471 -55.4886,-136.985 -106.973,-177.84 -51.5201,-40.8192 -114.521,-61.3351 -189.001,-61.3351 -76.9967,0 -139.678,15.6615 -188.009,47.1618 -48.3311,31.3585 -85.0046,76.8549 -110.162,136.348 -25.1577,59.6698 -37.8428,123.485 -37.8428,191.836 0,74.5163 14.1733,139.501 42.6618,194.99 28.5238,55.5241 69.0242,97.6897 121.501,126.497 52.5122,28.8427 110.339,43.1933 173.34,43.1933 71.6817,0 131.847,-18.1773 180.497,-54.6737 48.8272,-36.4964 82.8432,-87.6621 102.013,-153.674l-93.0125 -22.0041c-16.5119,52.0162 -40.6775,90.0007 -72.1777,113.67 -31.5002,23.8466 -71.1502,35.6814 -118.985,35.6814 -54.8508,0 -100.843,-13.1812 -137.659,-39.5082 -36.8507,-26.327 -62.8588,-61.8312 -77.6699,-106.158 -14.9883,-44.5043 -22.5002,-90.355 -22.5002,-137.517 0,-60.8391 8.8229,-113.989 26.5041,-159.344 17.6458,-45.4964 45.1421,-79.3353 82.4888,-101.835 37.3468,-22.5002 77.6699,-33.6617 121.182,-33.6617 52.9729,0 97.6543,15.3426 134.328,45.8508 36.6735,30.6498 61.4769,76.0045 74.4809,136.312z"
   id="glyph89" />
   <glyph
   unicode="e"
   horiz-adv-x="556"
   d="M419.991 167.99l90.9928 -11.9765c-14.1379,-52.8311 -40.6421,-94.0047 -79.3353,-123.166 -38.6578,-29.1971 -87.981,-43.8311 -148.147,-43.8311 -75.6856,0 -135.674,23.3151 -180.001,69.9809 -44.3271,46.4886 -66.5084,112.005 -66.5084,196.159 0,87.0243 22.3584,154.667 67.1816,202.679 44.8232,48.1539 103.005,72.1777 174.509,72.1777 69.1659,0 125.647,-23.5277 169.478,-70.6895 43.8311,-47.1618 65.8352,-113.493 65.8352,-198.994 0,-5.17327 -0.177167,-13.004 -0.496067,-23.3151l-386.507 0c3.33073,-56.8351 19.3466,-100.524 48.3311,-130.678 28.8427,-30.1538 65.0202,-45.3193 108.178,-45.3193 32.1735,0 59.6698,8.46857 82.3471,25.4766 22.8191,17.008 40.8192,44.1854 54.1422,81.4967zm-288.002 141.025l288.994 0c-3.8268,43.6539 -14.9883,76.3234 -33.1656,98.1504 -27.8152,33.8388 -64.1344,50.8469 -108.639,50.8469 -40.3586,0 -74.162,-13.5001 -101.694,-40.5003 -27.3191,-27.0002 -42.4846,-63.1777 -45.4964,-108.497z"
   id="glyph91" />
   <glyph
   unicode="T"
   horiz-adv-x="610"
   d="M258.982 0l0 631.989 -235.986 0 0 84.0125 567.004 0 0 -84.0125 -235.986 0 0 -631.989 -95.0322 0z"
   id="glyph93" />
   <glyph
   unicode="b"
   horiz-adv-x="556"
   d="M147.013 0l-82.0282 0 0 716.002 88.0164 0 0 -255.51c37.1696,46.3468 84.5085,69.5202 142.159,69.5202 31.8546,0 62.1855,-6.34257 90.6739,-19.1694 28.4884,-12.8269 51.839,-31.0042 70.3352,-54.1776 18.319,-23.3151 32.8467,-51.3429 43.1578,-84.1542 10.5237,-32.6695 15.6615,-67.8549 15.6615,-105.166 0,-88.6897 -22.0041,-157.36 -65.8352,-205.691 -43.9728,-48.4728 -96.6622,-72.6384 -158.139,-72.6384 -61.1934,0 -109.17,25.4766 -144.001,76.3234l0 -65.3391zm-1.02757 263.341c0,-62.0084 8.504,-106.832 25.3348,-134.505 27.6734,-45.1775 65.0202,-67.8194 112.182,-67.8194 38.4806,0 71.6817,16.6537 99.4968,49.9965 27.9923,33.3073 41.9885,82.9849 41.9885,148.997 0,67.6423 -13.3229,117.497 -40.146,149.67 -26.8585,32.138 -59.3509,48.3311 -97.3354,48.3311 -38.5161,0 -71.6817,-16.6891 -99.4968,-49.9965 -27.9923,-33.3428 -42.024,-81.5321 -42.024,-144.674z"
   id="glyph95" />
   <glyph
   unicode="s"
   horiz-adv-x="500"
   d="M31.0042 154.985l86.9889 14.0316c4.85437,-34.8664 18.4962,-61.5123 40.8547,-80.1857 22.323,-18.4962 53.6461,-27.8152 93.6503,-27.8152 40.5003,0 70.5124,8.14967 90.1779,24.6616 19.4883,16.3348 29.3388,35.6459 29.3388,57.8272 0,19.8427 -8.85834,35.5042 -26.3624,46.8429 -12.3308,7.83077 -42.3074,17.6458 -90.0007,29.8349 -64.3115,16.1576 -108.816,30.1538 -133.832,41.9885 -24.8033,12.0119 -43.6539,28.3112 -56.4808,49.3232 -12.8269,20.8348 -19.3466,44.0082 -19.3466,69.3431 0,23.1734 5.35044,44.5043 15.8387,64.1698 10.6654,19.6655 25.0159,36.0003 43.1578,49.0043 13.6773,9.9922 32.3506,18.4962 55.843,25.4766 23.6695,7.0158 48.8272,10.5237 75.8274,10.5237 40.6775,0 76.3234,-5.8465 107.009,-17.6812 30.827,-11.6576 53.5044,-27.6734 68.1738,-47.6579 14.4922,-20.1616 24.6616,-47.0201 30.1538,-80.6817l-85.9967 -11.9765c-3.8268,27.0002 -15.1655,48.1539 -33.8388,63.3194 -18.6734,15.1655 -45.0004,22.6773 -79.1581,22.6773 -40.1814,0 -68.9887,-6.66147 -86.1739,-20.0198 -17.1497,-13.3229 -25.8309,-28.9845 -25.8309,-46.8075 0,-11.3387 3.5079,-21.6852 10.6654,-30.8624 7.15754,-9.31897 18.3545,-17.1497 33.6617,-23.3151 8.85834,-3.33073 34.5121,-10.8426 77.4927,-22.5002 62.0084,-16.5119 105.343,-30.1892 130.005,-40.6775 24.6616,-10.4883 44.0082,-26.0081 58.0044,-45.9925 14.1733,-20.1616 21.1891,-45.1775 21.1891,-75.1541 0,-29.1971 -8.504,-56.6934 -25.6892,-82.5243 -17.1497,-25.8309 -41.8114,-45.8153 -73.9848,-59.9887 -32.3506,-14.1733 -68.847,-21.1537 -109.524,-21.1537 -67.3234,0 -118.808,13.9962 -154.135,41.8114 -35.3625,27.9923 -57.8627,69.3431 -67.6777,124.158z"
   id="glyph97" />
   <glyph
   unicode="N"
   horiz-adv-x="722"
   d="M76.0045 0l0 716.002 97.3354 0 375.664 -562.008 0 562.008 90.9928 0 0 -716.002 -97.3354 0 -375.664 562.008 0 -562.008 -90.9928 0z"
   id="glyph99" />
   <glyph
   unicode="K"
   horiz-adv-x="666"
   d="M72.9927 0l0 716.002 94.9968 0 0 -355.007 355.68 355.007 128.34 0 -300.333 -290.341 313.337 -425.661 -125.009 0 -254.837 361.349 -117.178 -113.351 0 -247.998 -94.9968 0z"
   id="glyph101" />
   <glyph
   unicode=":"
   horiz-adv-x="277"
   d="M90.0007 418.999l0 99.9929 99.9929 0 0 -99.9929 -99.9929 0zm0 -418.999l0 99.9929 99.9929 0 0 -99.9929 -99.9929 0z"
   id="glyph103" />
   <glyph
   unicode="&amp;"
   horiz-adv-x="667"
   d="M475.663 85.0036c-28.9959,-32.0077 -60.6612,-56.0077 -94.8303,-71.9997 -34.1692,-16.0039 -71.1611,-23.9999 -111,-23.9999 -73.3344,0 -131.503,24.6613 -174.495,73.9958 -34.8424,40.3345 -52.3344,85.169 -52.3344,134.834 0,44.1612 14.1614,83.9997 42.6612,119.503 28.4999,35.6573 71.1729,66.8265 127.665,93.8264 -32.492,37.0038 -54.1651,67.169 -64.9958,90.3422 -10.8307,22.996 -16.3346,45.3305 -16.3346,66.8265 0,43.0038 16.8306,80.3383 50.6691,112.003 33.6613,31.8306 76.169,47.6691 127.499,47.6691 48.8266,0 88.9957,-14.9999 120.165,-44.9998 31.1692,-29.9999 46.6652,-66.1769 46.6652,-108.177 0,-68.1611 -45.3305,-126.496 -136.169,-174.661l129.673 -162.673c14.8346,28.6771 26.3267,61.8423 34.4999,99.6728l91.0036 -19.6653c-15.6732,-62.3383 -36.8384,-113.338 -63.673,-153.165 32.8345,-43.4998 70.169,-80.0076 111.673,-109.677l-59.0076 -69.6611c-35.3266,22.4999 -71.669,55.9958 -109.334,100.004zm-179.999 371.833c38.3384,22.6653 62.9998,42.3305 74.3383,59.3265 11.3267,17.0078 16.996,35.8345 16.996,56.5037 0,24.496 -7.83068,44.5038 -23.3267,59.9998 -15.5078,15.496 -35.0077,23.3385 -58.1691,23.3385 -23.8346,0 -43.8305,-7.67714 -59.6691,-23.0078 -15.8385,-15.3306 -23.8346,-34.1692 -23.8346,-56.4919 0,-11.0078 2.83463,-22.8424 8.66926,-35.0077 5.66927,-12.3307 14.1614,-25.3345 25.6653,-38.9998l39.3306 -45.6612zm124.003 -303.176l-160.334 200.172c-47.6691,-28.1692 -79.8304,-54.3305 -96.3303,-78.4958 -16.6653,-24.1653 -25.0038,-47.9998 -25.0038,-71.669 0,-28.8306 11.5039,-58.8305 34.6652,-89.9996 23.0078,-31.1692 55.6651,-46.6652 97.8303,-46.6652 26.3385,0 53.6691,7.99603 81.6729,24.1653 28.1692,16.1692 50.6691,36.992 67.4997,62.4919z"
   id="glyph105" />
   <glyph
   unicode="7"
   horiz-adv-x="556"
   d="M46.9846 622.989l0 84.0125 463.008 0 0 -67.9966c-45.4964,-48.5083 -90.8157,-112.997 -135.497,-193.502 -44.8232,-80.5046 -79.3353,-163.348 -103.82,-248.494 -17.5041,-59.8469 -28.8427,-125.682 -33.6617,-197.009l-90.0007 0c0.992134,56.339 11.9765,124.513 33.1656,204.344 21.1537,79.9731 51.3075,157.005 90.8157,231.167 39.5082,74.162 81.4967,136.666 126.001,187.478l-350.011 0z"
   id="glyph107" />
   <glyph
   unicode="Y"
   horiz-adv-x="666"
   d="M278.825 0l0 303.345 -275.99 412.657 113.989 0 141.521 -216.675c26.327,-40.146 50.8114,-80.3274 73.1699,-120.509 21.8269,37.5239 48.3311,79.5124 79.1581,126.178l138.651 211.006 110.517 0 -286.018 -412.657 0 -303.345 -94.9968 0z"
   id="glyph109" />
   <glyph
   unicode="x"
   horiz-adv-x="500"
   d="M5.99998 0l189.495 268.83 -175.499 250.168 108.165 0 82.0036 -122.503c15.1653,-22.996 27.1652,-41.6573 35.6692,-56.3265 14.8346,20.8346 28.0038,39.6613 39.8384,56.5037l86.3264 122.326 107.504 0 -176.503 -250.168 187.995 -268.83 -106.996 0 -107.326 160.003 -24.5078 38.492 -138.661 -198.495 -107.504 0z"
   id="glyph111" />
   <glyph
   unicode="g"
   horiz-adv-x="556"
   d="M49.8305 -43.0038l85.0036 -12c3.49605,-26.3267 13.4999,-45.4959 29.8345,-57.6612 21.8267,-16.1692 51.6612,-24.3306 89.5036,-24.3306 40.6652,0 72.1651,8.16139 94.3225,24.3306 22.1692,16.1692 37.1691,38.9998 44.9998,68.1611 4.49998,17.8346 6.6732,55.3344 6.34249,112.5 -38.5038,-45.3305 -86.3382,-67.9958 -143.669,-67.9958 -71.3383,0 -126.673,25.6653 -165.673,77.1611 -39.1652,51.3423 -58.6651,113.007 -58.6651,184.842 0,49.4998 8.99996,95.161 26.8345,136.996 17.8346,41.8345 43.8305,73.9958 77.8343,96.8382 34.0038,22.8306 73.9958,34.1692 120,34.1692 61.1691,0 111.673,-25.0038 151.334,-75.0115l0 64.0037 80.9997 0 0 -448.168c0,-80.8343 -8.16139,-137.999 -24.6613,-171.661 -16.3346,-33.6731 -42.5077,-60.3305 -77.9997,-79.8422 -35.6692,-19.4999 -79.4997,-29.3267 -131.503,-29.3267 -61.8305,0 -111.673,13.8307 -149.669,41.6691 -38.1613,27.6613 -56.5037,69.4958 -55.1691,125.326zm71.9997 311.337c0,-67.8304 13.4999,-117.33 40.4998,-148.499 27.1652,-31.1692 61.0037,-46.8305 101.669,-46.8305 40.4998,0 74.3383,15.496 101.834,46.4998 27.3306,30.992 40.9959,79.665 40.9959,145.995 0,63.3305 -14.1614,111.165 -42.3305,143.338 -28.1692,32.1613 -62.1612,48.1652 -101.834,48.1652 -39.1652,0 -72.3304,-15.8385 -99.8264,-47.5037 -27.3424,-31.6652 -41.0077,-78.6611 -41.0077,-141.165z"
   id="glyph113" />
   <glyph
   unicode="#"
   horiz-adv-x="556"
   d="M49.9965 -12.0119l42.52 208.029 -82.5243 0 0 72.9927 97.3354 0 36.1775 176.99 -133.513 0 0 72.9927 148.324 0 42.6972 209.021 73.3116 0 -42.6618 -209.021 152.505 0 42.6618 209.021 73.1699 0 -42.6618 -209.021 84.6503 0 0 -72.9927 -99.4968 0 -36.142 -176.99 135.639 0 0 -72.9927 -150.485 0 -42.52 -208.029 -73.3116 0 42.4846 208.029 -152.505 0 -42.4846 -208.029 -73.1699 0zm130.501 281.022l152.505 0 36.1775 176.99 -152.505 0 -36.1775 -176.99z"
   id="glyph115" />
   <glyph
   unicode="4"
   horiz-adv-x="556"
   d="M323.01 0l0 171.001 -310.999 0 0 81.0006 326.979 464 72.0006 0 0 -464 97.0165 0 0 -81.0006 -97.0165 0 0 -171.001 -87.981 0zm0 252.002l0 322.16 -224.506 -322.16 224.506 0z"
   id="glyph117" />
   <glyph
   unicode="E"
   horiz-adv-x="666"
   d="M79.0164 0l0 716.002 516.973 0 0 -84.0125 -421.976 0 0 -220.006 394.976 0 0 -83.977 -394.976 0 0 -243.994 438.984 0 0 -84.0125 -533.981 0z"
   id="glyph119" />
   <glyph
   unicode="B"
   horiz-adv-x="666"
   d="M72.9927 0l0 716.002 268.691 0c54.6382,0 98.4693,-7.15754 131.635,-21.6852 33.0239,-14.4922 58.8548,-36.8153 77.5282,-66.969 18.8151,-30.012 28.1695,-61.5123 28.1695,-94.5007 0,-30.5081 -8.36227,-59.3509 -24.8388,-86.3511 -16.5119,-27.0002 -41.5279,-48.8272 -75.0124,-65.4808 43.335,-12.6851 76.6778,-34.3349 99.8512,-65.0202 23.3151,-30.5081 34.9727,-66.6501 34.9727,-108.32 0,-33.6617 -7.15754,-64.843 -21.3309,-93.6858 -14.1733,-28.8073 -31.642,-50.9886 -52.4768,-66.6501 -20.8348,-15.5198 -47.0201,-27.3545 -78.3431,-35.327 -31.5002,-8.00794 -70.0163,-12.0119 -115.654,-12.0119l-273.191 0zm94.9968 414.995l154.844 0c41.9885,0 72.1777,2.83467 90.3196,8.32684 24.1655,7.19297 42.3429,19.1694 54.4965,35.8586 12.1891,16.6537 18.3545,37.4885 18.3545,62.6462 0,23.8466 -5.66934,44.8232 -17.1852,62.8233 -11.3032,18.1773 -27.638,30.6853 -48.8272,37.3468 -21.1537,6.66147 -57.5083,9.9922 -108.816,9.9922l-143.186 0 0 -216.994zm0 -330.983l178.336 0c30.6853,0 52.1579,1.1693 64.6659,3.47247 21.6852,3.86224 40.0043,10.3465 54.6737,19.5238 14.6694,9.1418 26.6813,22.5002 36.1775,40.0043 9.49614,17.5041 14.1733,37.6657 14.1733,60.4847 0,26.823 -6.83864,49.9965 -20.6931,69.8391 -13.6418,19.8427 -32.6695,33.6617 -56.9768,41.6696 -24.1655,8.00794 -59.1737,11.9765 -104.67,11.9765l-165.686 0 0 -246.97z"
   id="glyph121" />
   <glyph
   unicode="1"
   horiz-adv-x="556"
   d="M372.015 0l-88.0164 0 0 560.343c-21.1537,-20.3387 -49.0043,-40.5003 -83.3392,-60.6619 -34.3349,-20.197 -65.3391,-35.3625 -92.6582,-45.3547l0 85.0046c49.1815,22.9962 92.1621,50.9886 129.013,84.0125 36.8153,32.8113 63.0005,64.6659 78.3077,95.67l56.6934 0 0 -719.014z"
   id="glyph123" />
   <glyph
   unicode="d"
   horiz-adv-x="556"
   d="M400.999 0l0 65.8352c-32.8467,-51.1658 -81.1778,-76.8195 -144.993,-76.8195 -41.3507,0 -79.3353,11.3032 -113.847,34.1577 -34.6538,22.6773 -61.4769,54.4965 -80.6463,95.174 -19.0277,40.8192 -28.5238,87.6621 -28.5238,140.635 0,51.6973 8.68117,98.5047 25.8309,140.67 17.3623,42.024 43.1933,74.3392 77.6699,96.6976 34.3349,22.5002 73.0281,33.6617 115.513,33.6617 31.3231,0 59.1737,-6.66147 83.481,-19.8427 24.3427,-13.1812 44.1854,-30.5081 59.528,-51.6618l0 257.494 87.981 0 0 -716.002 -81.9928 0zm-278.01 258.841c0,-66.3312 13.9962,-115.832 42.1657,-148.678 28.0278,-32.8113 61.1934,-49.1461 99.3551,-49.1461 38.4806,0 71.1502,15.6615 98.1504,46.9846 26.823,31.3231 40.3232,79.1581 40.3232,143.505 0,70.6541 -13.6418,122.67 -41.1381,155.836 -27.3545,33.1656 -61.1934,49.6421 -101.339,49.6421 -39.1893,0 -71.8234,-15.8033 -98.1858,-47.6579 -26.1498,-31.8191 -39.331,-81.9928 -39.331,-150.485z"
   id="glyph125" />
   <glyph
   unicode=" "
   horiz-adv-x="277"
   d=""
   id="glyph127" />
   <glyph
   unicode="u"
   horiz-adv-x="556"
   d="M404.998 0l0 77.1611c-40.3345,-58.8305 -94.9957,-88.1571 -164.161,-88.1571 -30.5078,0 -59.0076,5.83462 -85.4997,17.4921 -26.5038,11.8346 -46.1691,26.5038 -59.0076,44.1731 -12.8267,17.8346 -21.8267,39.4959 -26.9999,65.1612 -3.49605,17.3385 -5.32675,44.6691 -5.32675,82.0036l0 321.164 87.9918 0 0 -287.16c0,-45.8384 1.84251,-76.8422 5.33856,-92.6689 5.50392,-23.1731 17.1613,-41.1731 35.1613,-54.3305 17.8346,-13.1692 39.8384,-19.8424 66.1769,-19.8424 26.3267,0 50.9998,6.6732 73.9958,20.1731 22.996,13.4999 39.3306,31.9959 49.0037,55.1691 9.49603,23.1613 14.3267,56.9998 14.3267,101.161l0 277.499 88.0036 0 0 -518.998 -79.0036 0z"
   id="glyph129" />
   <glyph
   unicode="a"
   horiz-adv-x="556"
   d="M405.003 64.9848c-32.6695,-27.8152 -64.1698,-47.3035 -94.3236,-58.8194 -30.1892,-11.5158 -62.5044,-17.1497 -97.1937,-17.1497 -56.9768,0 -100.808,13.819 -131.493,41.6342 -30.6498,27.6734 -45.9925,63.1777 -45.9925,106.335 0,25.3348 5.8465,48.5083 17.3269,69.5202 11.6576,21.012 26.823,37.6657 45.4964,50.3154 18.8505,12.6851 39.8271,22.3584 63.3548,28.8427 17.3269,4.50004 43.4767,8.8229 78.3077,13.1812 71.0084,8.32684 123.521,18.4962 157.005,30.1538 0.354333,12.0119 0.496067,19.6655 0.496067,22.8191 0,35.6814 -8.32684,60.8391 -24.9805,75.5085 -22.5002,19.8427 -56.0201,29.6577 -100.347,29.6577 -41.4925,0 -72.1423,-7.3347 -91.8432,-21.8269 -19.8072,-14.4922 -34.2995,-40.146 -43.8311,-77.1738l-85.9967 12.0119c7.83077,36.8507 20.6931,66.6856 38.6932,89.3275 18.0001,22.6773 43.9728,40.0043 77.9888,52.3351 33.8388,12.1891 73.347,18.3545 117.993,18.3545 44.3271,0 80.5046,-5.17327 108.32,-15.6615 27.6734,-10.5237 48.1894,-23.5277 61.1934,-39.3665 13.004,-15.8033 22.1458,-35.8231 27.4963,-59.9887 2.83467,-14.9883 4.32287,-41.9885 4.32287,-80.8235l0 -116.682c0,-81.4967 1.84253,-132.981 5.49217,-154.808 3.5079,-21.8624 10.8426,-42.6972 21.508,-62.6816l-91.985 0c-8.85834,18.4962 -14.5277,40.1814 -17.008,64.9848zm-7.0158 195.025c-31.9963,-13.004 -79.9731,-24.0238 -144.001,-33.0239 -36.3192,-5.13784 -61.9729,-10.9843 -76.9967,-17.4686 -14.9883,-6.51974 -26.5041,-16.0159 -34.6538,-28.3467 -8.1851,-12.508 -12.3308,-26.327 -12.3308,-41.6696 0,-23.1734 8.8229,-42.6618 26.6459,-58.1816 17.8584,-15.4844 43.8665,-23.3151 78.0242,-23.3151 33.8388,0 63.9926,7.3347 90.4968,22.1458 26.327,14.6694 45.8153,34.8664 58.1461,60.343 9.53157,19.8427 14.1733,49.0043 14.1733,87.5204l0.496067 31.9963z"
   id="glyph131" />
   <glyph
   unicode="P"
   horiz-adv-x="666"
   d="M76.9967 0l0 716.002 270.321 0c47.5161,0 83.8353,-2.3386 109.028,-6.83864 35.1499,-5.8465 64.6659,-17.008 88.4771,-33.3428 23.8466,-16.4765 43.0161,-39.4728 57.5083,-68.9887 14.4922,-29.4805 21.6852,-62.0084 21.6852,-97.5126 0,-60.6619 -19.3466,-112.147 -58.1816,-154.135 -38.6578,-42.2011 -108.851,-63.1777 -210.155,-63.1777l-183.686 0 0 -292.006 -94.9968 0zm94.9968 375.983l184.998 0c61.3351,0 104.67,11.3387 130.501,34.1932 25.6892,22.8191 38.5161,54.8154 38.5161,96.3078 0,29.8349 -7.51187,55.5241 -22.6773,76.8549 -15.1655,21.3309 -35.1499,35.5042 -59.8469,42.3429 -15.9804,4.1457 -45.4964,6.30714 -88.2999,6.30714l-183.19 0 0 -256.006z"
   id="glyph133" />
   <glyph
   unicode="r"
   horiz-adv-x="332"
   d="M64.9958 0l0 518.998 79.0036 0 0 -79.4997c20.1613,36.8384 38.8345,61.1691 55.9958,72.8383 17.1732,11.8346 35.9999,17.6692 56.5037,17.6692 29.6692,0 59.8344,-9.34248 90.4957,-27.8385l-31.3227 -81.165c-21.3424,12 -42.6731,17.9999 -64.0037,17.9999 -19.1692,0 -36.3306,-5.83462 -51.4959,-17.3385 -15.1771,-11.4921 -26.0078,-27.496 -32.5038,-47.9998 -9.83854,-31.1692 -14.6692,-65.3265 -14.6692,-102.496l0 -271.168 -88.0036 0z"
   id="glyph135" />
   <glyph
   unicode="M"
   horiz-adv-x="833"
   d="M75.0124 0l0 716.002 141.981 0 169.336 -506.839c15.6615,-47.1618 27.0002,-82.4888 34.1577,-105.981 8.1851,25.9726 21.012,64.3115 38.3389,114.804l172.348 498.016 126.816 0 0 -716.002 -90.9928 0 0 599.001 -208.986 -599.001 -85.3589 0 -206.647 609.985 0 -609.985 -90.9928 0z"
   id="glyph137" />
   <glyph
   unicode="o"
   horiz-adv-x="556"
   d="M32.9999 259.499c0,95.8343 26.6692,166.83 80.1611,212.999 44.5038,38.3384 99.0114,57.5076 163.169,57.5076 71.1729,0 129.507,-23.3385 174.838,-70.0037 45.1652,-46.4998 67.8304,-111 67.8304,-193.169 0,-66.6612 -9.99209,-118.996 -29.9999,-157.169 -19.996,-38.1613 -49.1691,-67.8304 -87.4957,-88.9957 -38.1731,-21.1653 -80.0076,-31.6652 -125.173,-31.6652 -72.6611,0 -131.326,23.1613 -176.161,69.6611 -44.8345,46.4998 -67.169,113.503 -67.169,200.834zm89.9996 -0.165354c0,-66.3304 14.5039,-115.996 43.4998,-148.83 29.1731,-32.9999 65.669,-49.4998 109.83,-49.4998 43.6652,0 80.0076,16.4999 109.169,49.6652 28.9959,33.1652 43.4998,83.669 43.4998,151.499 0,64.0037 -14.6692,112.5 -43.8305,145.334 -29.1731,32.9999 -65.5037,49.4998 -108.838,49.4998 -44.1612,0 -80.6572,-16.3346 -109.83,-49.1691 -28.9959,-32.8345 -43.4998,-82.3343 -43.4998,-148.499z"
   id="glyph139" />
   <glyph
   unicode="9"
   horiz-adv-x="556"
   d="M54.9926 166.005l84.0125 6.98037c7.15754,-39.6499 20.8348,-68.3155 40.9964,-86.1385 20.1616,-17.8584 45.9925,-26.8585 77.6699,-26.8585 27.0002,0 50.6697,6.1654 71.1502,18.6734 20.5159,12.3308 37.1696,28.8427 49.9965,49.6776 12.8623,20.6576 23.6695,48.65 32.5278,83.8353 8.8229,35.1499 13.1458,71.0084 13.1458,107.505 0,3.8268 -0.141733,9.81504 -0.496067,17.6458 -17.5041,-27.9923 -41.4925,-50.8114 -71.8234,-68.1738 -30.3309,-17.4686 -63.3548,-26.1498 -98.6819,-26.1498 -59.1737,0 -109.17,21.508 -150.167,64.4887 -40.8192,42.8389 -61.3351,99.4968 -61.3351,169.832 0,72.6738 21.3309,130.997 64.1698,175.36 42.6618,44.15 96.1661,66.3312 160.69,66.3312 46.3114,0 88.8314,-12.508 127.489,-37.6657 38.4806,-25.0159 67.6777,-60.6973 87.6621,-107.186 19.9844,-46.3114 30.012,-113.493 30.012,-201.332 0,-91.4889 -9.85047,-164.34 -29.6931,-218.482 -19.8072,-54.3548 -49.5004,-95.5283 -88.6542,-123.84 -39.1539,-28.3467 -85.0046,-42.52 -137.659,-42.52 -56.0201,0 -101.658,15.5198 -137.162,46.6657 -35.327,31.1813 -56.6934,75.0124 -63.8509,131.351zm359.011 315.817c0,50.3508 -13.3229,90.355 -40.0043,119.836 -26.5041,29.516 -58.8194,44.3271 -96.8393,44.3271 -39.331,0 -73.3116,-15.8033 -101.977,-47.6579 -28.8427,-31.8191 -43.1933,-73.1699 -43.1933,-123.84 0,-45.4964 13.6773,-82.4888 40.8547,-110.836 27.3191,-28.4884 61.3351,-42.6618 101.835,-42.6618 40.6421,0 73.9848,14.1733 100.17,42.6618 26.1498,28.3467 39.1539,67.8549 39.1539,118.17z"
   id="glyph141" />
   <glyph
   unicode="l"
   horiz-adv-x="222"
   d="M64.0037 0l0 716.005 87.9918 0 0 -716.005 -87.9918 0z"
   id="glyph143" />
   <glyph
   unicode="G"
   horiz-adv-x="777"
   d="M411.984 280.986l0 84.0125 303.026 0 0 -265.325c-46.524,-36.9924 -94.5007,-65.0202 -144.001,-83.6581 -49.5004,-18.6734 -100.347,-28.0278 -152.328,-28.0278 -70.3352,0 -134.186,15.0237 -191.694,45.1775 -57.3312,30.012 -100.808,73.6659 -129.97,130.501 -29.3388,57.0123 -44.0082,120.651 -44.0082,190.844 0,69.662 14.4922,134.647 43.6539,195.167 29.1616,60.3076 71.0084,105.166 125.682,134.328 54.6382,29.3388 117.639,44.0082 189.001,44.0082 51.6618,0 98.5047,-8.36227 140.316,-25.1931 41.8468,-16.8308 74.6581,-40.146 98.3275,-69.9809 23.8466,-30.012 41.8468,-69.1659 54.1776,-117.355l-85.5007 -23.3151c-10.8426,36.3192 -24.1655,64.9848 -40.0043,85.9967 -15.9804,20.8348 -38.6578,37.4885 -68.3155,49.9965 -29.516,12.508 -62.3627,18.8505 -98.5047,18.8505 -43.1578,0 -80.5046,-6.6969 -112.182,-19.8427 -31.5002,-13.1812 -56.8351,-30.5081 -76.3234,-52.1579 -19.3466,-21.508 -34.3349,-45.1775 -45.0004,-70.8313 -18.1773,-44.5043 -27.3191,-92.5165 -27.3191,-144.355 0,-63.9926 10.9843,-117.497 32.8113,-160.655 22.0041,-43.0161 54.0004,-75.0124 95.8472,-95.8472 41.9885,-20.8348 86.4928,-31.3231 133.655,-31.3231 40.9964,0 81.0006,8.00794 120.013,23.8466 38.9767,15.9804 68.4927,32.8113 88.6542,50.9886l0 134.151 -210.013 0z"
   id="glyph145" />
   <glyph
   unicode="6"
   horiz-adv-x="556"
   d="M499.008 540.996l-87.0243 -6.98037c-7.83077,34.4766 -18.9923,59.6343 -33.4845,75.3313 -23.8466,25.1577 -53.3272,37.6657 -88.3353,37.6657 -28.1695,0 -53.15,-7.83077 -74.6581,-23.5277 -27.6734,-20.1616 -49.3232,-49.5004 -65.5163,-88.1582 -15.9804,-38.835 -24.3073,-94.0047 -24.9805,-165.509 21.1537,32.1735 47.1618,56.1973 77.8116,71.6817 30.6853,15.6615 62.6816,23.4923 96.3433,23.4923 58.6776,0 108.674,-21.6498 149.989,-64.8076 41.1736,-43.1933 61.8312,-98.859 61.8312,-167.352 0,-45.0004 -9.63787,-86.67 -28.9845,-125.328 -19.4883,-38.6578 -45.9925,-68.1738 -80.0085,-88.6542 -33.8388,-20.5159 -72.3195,-30.8624 -115.336,-30.8624 -73.1699,0 -132.981,27.0002 -179.328,80.8589 -46.1697,53.8233 -69.3431,142.655 -69.3431,266.317 0,138.332 25.6892,238.998 76.8549,301.821 44.646,54.6737 104.812,82.0282 180.675,82.0282 56.3036,0 102.65,-15.8387 138.651,-47.339 36.0003,-31.5002 57.6855,-75.0124 64.843,-130.678zm-360.003 -308.979c0,-30.3664 6.4843,-59.3509 19.3112,-87.0243 12.8623,-27.6734 30.8624,-48.65 53.6815,-63.1422 22.9962,-14.5277 47.339,-21.8624 73.1699,-21.8624 37.4885,0 69.4848,15.0237 95.9889,45.0004 26.5041,30.012 39.8271,70.6895 39.8271,122.174 0,49.5004 -13.1458,88.5125 -39.331,117.001 -26.1498,28.4884 -59.4926,42.8389 -99.9929,42.8389 -39.6499,0 -73.4888,-14.3505 -101.162,-42.8389 -27.6734,-28.4884 -41.4925,-65.8352 -41.4925,-112.147z"
   id="glyph147" />
   <glyph
   unicode="i"
   horiz-adv-x="222"
   d="M66.0123 616.009l0 99.9929 87.981 0 0 -99.9929 -87.981 0zm0 -616.009l0 518.992 87.981 0 0 -518.992 -87.981 0z"
   id="glyph149" />
  </font>
</defs>
</svg>
